电影下载

反击 SlashBack.2022.1080p.WEBRip.x265-RARBG 1.36 GB

反击 SlashBack.2022.1080p.WEBRip.x265-RARBG 1.36 GB

  • 版本:高清完整版
  • 发布:

电影介绍

    反击 SlashBack.2022.1080p.WEBRip.x265-RARBG 1.36 GB情临危不惧同千虑一失手足13. 公园的树林也很美。在公园的小山上栽满了树木,梧桐树的叶子随着时间的流逝慢慢变黄,纷纷飘落;枫树的叶子却变红了,公园笼罩在片片红云中,也使秋天增添了一分热情。而柏树的叶子仍是那么青翠欲滴,令你陶醉极了。山上有一群孩子在快乐的嬉戏,不时传来阵阵欢笑声,瞧,他们玩得多起劲呀,给树林增添了活力。58. I got sick and tired of doing the routine work day after day.111.水至清则无鱼,人至察则无徒。《汉书?东方朔》

    悠悠MP4_MP4电影下载_反击 SlashBack.2022.1080p.WEBRip.x265-RARBG 1.36 GB

◎片  名 反击 Slash/Back
◎年  代 2022
◎产  地 美国
◎类  别 动作 / 科幻 / 惊悚
◎语  言 英语
◎上映日期 2022-03-13(西南偏南电影节)
◎IMDb评分  6.4/10 from 26 users
◎IMDb链接  https://www.imdb.com/title/tt9050310/
◎豆瓣评分 /10 from 0 users
◎豆瓣链接 https://movie.douban.com/subject/35277284/
◎片  长 
◎导  演 尼拉·因努克 Nyla Innuksuk
◎编  剧 尼拉·因努克 Nyla Innuksuk
       瑞安·卡文 Ryan Cavan
◎主  演 

◎简  介

  Pangnirtung, Nunavut: A sleepy hamlet nestled in the majestic mountains of Baffin Island in the Arctic Ocean, wakes up to a typical summer day. No School, no cool boys (well... except one), and 24 hour sunlight. But for Maika and her ragtag friends, the usual summer is suddenly not in the cards when they discover an alien invasion threatening Pang. But these teenagers have been underestimated their whole lives, and using makeshift weapons and their horror movie knowledge, they show the aliens you don't fuck with the girls from Pang.
    


    
Video
ID           : 1
Format       : HEVC
Format/Info      : High Efficiency Video Coding
Format profile       : Main 10@L4@Main
Codec ID         : hev1
Codec ID/Info        : High Efficiency Video Coding
Duration         : 1 h 27 min
Bit rate        8. 我要开个小卖部,把零食都送给幼儿园的小朋友。 : 1 999 kb/s
Width        : 1 920 pixels
Height       : 954 pixels
Display aspect ratio     : 2.013
Frame rate mode      : Constant
Frame rate       : 23.976 (24000/1001) FPS
Color space      : YUV
Chroma subsampling       : 4:2:0
Bit depth        : 10 bits
Bits/(Pixel*Frame)       : 0.046
Stream size      : 1.22 GiB (90%)
Writing library      : x265 3.3+4-rarbg-30eb4de83092:[Linux][GCC 8.3.1][64 bit] 10bit
Encoding settings        : cpuid=1111039 / frame-threads=4 / wpp / no-pmode / no-pme / no-psnr / no-ssim / log-level=2 / input-csp=1 / input-res=1920x954 / interlace=0 / total-frames=0 / level-idc=0 / high-tier=1 / uhd-bd=0 / ref=4 / no-allow-non-conformance / no-repeat-headers / annexb / no-aud / no-hrd / info / hash=0 / no-temporal-layers / open-gop / min-keyint=23 / keyint=250 / gop-lookahead=0 / bframes=4 / b-adapt=2 / b-pyramid / bframe-bias=0 / rc-lookahead=25 / lookahead-slices=4 / scenecut=40 / hist-scenecut=0 / radl=0 / no-splice / no-intra-refresh / ctu=64 / min-cu-size=8 / rect / no-amp / max-tu-size=32 / tu-inter-depth=1 / tu-intra-depth=1 / limit-tu=0 / rdoq-level=2 / dynamic-rd=0.00 / no-ssim-rd / signhide / no-tskip / nr-intra=0 / nr-inter=0 / no-constrained-intra / strong-intra-smoothing / max-merge=3 / limit-refs=3 / limit-modes / me=3 / subme=3 / merange=57 / temporal-mvp / no-frame-dup / no-hme / weightp / no-weightb / no-analyze-src-pics / deblock=0:0 / no-sao / no-sao-non-deblock / rd=4 / selective-sao=0 / no-early-skip / rskip / no-fast-intra / no-tskip-fast / no-cu-lossless / no-b-intra / no-splitrd-skip / rdpenalty=0 / psy-rd=2.00 / psy-rdoq=1.00 / no-rd-refine / no-lossless / cbqpoffs=0 / crqpoffs=0 / rc=abr / bitrate=2000 / qcomp=0.60 / qpstep=4 / stats-write=0 / stats-read=2 / cplxblur=20.0 / qblur=0.5 / ipratio=1.40 / pbratio=1.30 / aq-mode=3 / aq-strength=1.00 / cutree / zone-count=0 / no-strict-cbr / qg-size=32 / no-rc-grain / qpmax=69 / qpmin=0 / no-const-vbv / sar=1 / overscan=0 / videoformat=5 / range=0 / colorprim=2 / transfer=2 / colormatrix=2 / chromaloc=0 / display-window=0 / cll=0,0 / min-luma=0 / max-luma=1023 / log2-max-poc-lsb=8 / vui-timing-info / vui-hrd-info / slices=1 / no-opt-qp-pps / no-opt-ref-list-length-pps / no-multi-pass-opt-rps / scenecut-bias=0.05 / hist-threshold=0.01 / no-opt-cu-delta-qp / no-aq-motion / no-hdr10 / no-hdr10-opt / no-dhdr10-opt / no-idr-recovery-sei / analysis-reuse-level=0 / analysis-save-reuse-level=0 / analysis-load-reuse-level=0 / scale-factor=0 / refine-intra=0 / refine-inter=0 / refine-mv=1 / refine-ctu-distortion=0 / no-limit-sao / ctu-info=0 / no-lowpass-dct / refine-analysis-type=0 / copy-pic=1 / max-ausize-factor=1.0 / no-dynamic-refine / no-single-sei / no-hevc-aq / no-svt / no-field / qp-adaptation-range=1.00 / no-scenecut-aware-qpconformance-window-offsets / right=0 / bottom=0
Encoded date         : UTC 2022-06-24 11:52:10
Tagged date      : UTC 2022-06-24 11:52:10
Codec configuration box      : hvcC

Audio
ID           : 2
Format       : AAC LC
Format/Info      : Advanced Audio Codec Low Complexity
Codec ID         : mp4a-40-2
Duration         : 1 h 27 min
Duration_LastFrame       : -12 ms
Bit rate mode        : Constant
Bit rate         : 224 kb/s
Channel(s)       : 6 channels
Channel layout       : C L R Ls Rs LFE
Sampling rate        : 48.0 kHz
Frame rate       : 46.875 FPS (1024 SPF)
Compression mode     : Lossy
Stream size      : 140 MiB (10%)
Language         : English
Default          : Yes
Alternate group      : 1
Encoded date         : UTC 2022-06-24 11:52:10
Tagged date      : UTC 2022-06-24 11:52:10

    

悠悠MP4_MP4电影下载_反击 SlashBack.2022.1080p.WEBRip.x265-RARBG 1.36 GB
悠悠MP4_MP4电影下载_反击 SlashBack.2022.1080p.WEBRip.x265-RARBG 1.36 GB
悠悠MP4_MP4电影下载_反击 SlashBack.2022.1080p.WEBRip.x265-RARBG 1.36 GB

磁力链接


    
    【公告】本站新增网址查询小程序,实时更新悠悠MP4可访问地址,请下载保存
    
    六州歌头 张孝祥318李白:清平调三首之二电影下载,MP4下载,高清电影,电影排行榜,电影票房What deference people in authority do command is based on their actual powers rather than on their age, wisdom, or dignity.

热门电影下载

最新电影下载

电影票房排行榜