电影下载

南方恶魔 Frank.and.Penelope.2022.1080p.WEBRip.DD5.1.x264-CM 5.63 GB

南方恶魔 Frank.and.Penelope.2022.1080p.WEBRip.DD5.1.x264-CM 5.63 GB

  • 版本:高清完整版
  • 发布:

电影介绍

    南方恶魔 Frank.and.Penelope.2022.1080p.WEBRip.DD5.1.x264-CM 5.63 GB天经地义倾国倾万象更新城16. 一饮一啄无不循天之功,因人之力,思之令人五内感激;至于一桌之上,含哺之恩,共箸之情,乡关之爱,泥土之亲,无不令人庄严。66. I've been learning English for 10 years, and I speak fluent English.(2012.全国)45.马之将死,其鸣也哀;人之将死,其言也善。

    悠悠MP4_MP4电影下载_南方恶魔 Frank.and.Penelope.2022.1080p.WEBRip.DD5.1.x264-CM 5.63 GB

◎片  名 南方恶魔 Frank and Penelope / South of the Devil
◎年  代 2022
◎产  地 美国
◎类  别 惊悚 / 犯罪
◎语  言 英语
◎上映日期 
◎IMDb评分  8.0/10 from 64 users
◎IMDb链接  https://www.imdb.com/title/tt4459134/
◎豆瓣评分 /10 from 0 users
◎豆瓣链接 https://movie.douban.com/subject/35867568/
◎片  长 
◎导  演 肖恩·派特里克·弗兰纳里 Sean Patrick Flanery
◎编  剧 肖恩·派特里克·弗兰纳里 Sean Patrick Flanery
       约翰·塔德埃斯 John Thaddeus
◎主  演 凯丽‧考恩 Caylee Cowan
        Rick Budinich
       凯文·狄龙 Kevin Dillon

◎简  介

  A tale of love and violence when a man on his emotional last legs finds a savior seductively dancing in a run-down strip club. And a life most certainly headed off a cliff suddenly becomes redirected - as EVERYTHING is now worth dying for.
    


    
Video
ID           : 1
Format       : AVC
Format/Info      : Advanced Video Codec
Format profile       : High@L4
Format settings      : CABAC / 5 Ref Frames
Format settings, CABAC       : Yes
Format settings, Reference frames    : 5 frames
Codec ID         : V_MPEG4/ISO/AVC
Duration         : 1 h 53 min
Bit rate         : 6 735 kb/s
Width        : 1 912 pixels
Height       : 796 pixels
Display aspect ratio     : 2.40:1
Frame rate mode      : Constant
Frame rate       : 23.976 (24000/1001) FPS
Color space      : YUV
Chroma subsampling       : 4:2:0
Bit depth        : 8 bits
Scan type        : Progressive
Bits/(Pixel*Frame)       : 0.185
Stream size      : 5.32 GiB (95%)
Language         : English
Default          : Yes
Forced       : No
Color range      : Limited
Color primaries      : BT.709
Transfer characteristics     : BT.709
Matrix coefficients      : BT.709

Audio
ID           : 2
Format       : AC-3
Format/Info      : Audio Coding 3
Commercial name      : Dolby Digital
Codec ID         : A_AC3
Duration         : 1 h 53 min
Bit rate mode        : Constant
Bit rate         : 384 kb/s
Channel(s)       : 6 channels
Channel layout       : L R C LFE Ls Rs
Sampling rate        : 48.0 kHz
Frame rate       : 31.250 FPS (1536 SPF)
Compression mode     : Lossy
Stream size      : 311 MiB (5%)
Language         : English
Service kind         : Complete Main
Default          : Yes
Forced       : No

Text #1
ID           : 3
Format       : UTF-8
Codec ID         : S_TEXT/UTF8
Codec ID/Info        : UTF-8 Plain Text
Duration         : 1 h 52 min
Bit rate         : 58 b/s
Frame rate       : 0.264 FPS
Count of elements        : 1786
Stream size      : 48.5 KiB (0%)
Title        : SDH
Language         : English
Default          : No
Forced       : No

Text #2
ID           : 4
Format       : UTF-8
Codec ID         : S_TEXT/UTF8
Codec ID/Info        : UTF-8 Plain Text
Duration         : 1 h 51 min
Bit rate         : 54 b/s
Frame rate       : 0.238 FPS
Count of elements        : 1594
Stream size      : 44.7 KiB (0%)
Language         : English
Default          : No
Forced       : No

Menu
00:00:00.000         : Chapter 01
00:16:05.131         : Chapter 02
00:28:18.448         : Chapter 03
00:42:11.364         : Chapter 04
00:52:12.132         : Chapter 05
01:05:48.740         : Chapter 06
01:19:11.584         : Chapter 07
01:33:36.282         : Chapter 08
01:49:39.871         : Chapter 09

    

悠悠MP4_MP4电影下载_南方恶魔 Frank.and.Penelope.2022.1080p.WEBRip.DD5.1.x264-CM 5.63 GB
悠悠MP4_MP4电影下载_南方恶魔 Frank.and.Penelope.2022.1080p.WEBRip.DD5.1.x264-CM 5.63 GB
11. 你那不经意间的回眸,像一股晶莹的泉水流入我的心头,比诗还深远,比画还优美,仿佛看到我生命中的一个新的开始。悠悠MP4_MP4电影下载_南方恶魔 Frank.and.Penelope.2022.1080p.WEBRip.DD5.1.x264-CM 5.63 GB

磁力链接


    
    【公告】本站新增网址查询小程序,实时更新悠悠MP4可访问地址,请下载保存
    
    满眼游丝兼落絮,红杏开时,一霎清明雨。浓睡觉来莺乱语,惊残好梦无寻处。松下问童子,言师采药去。电影下载,MP4下载,高清电影,电影排行榜,电影票房Numerous psychological studies show that different colors influence behavior, attitudes, and emotions in distinctly different ways.

热门电影下载

最新电影下载

电影票房排行榜