电影下载

西部明星 Western.Stars.2019.2160p.WEB-DL.x265.10bit.HDR.DTS-HD.MA.TrueHD.7.1.Atmos-NOGRP 13.48 GB

西部明星 Western.Stars.2019.2160p.WEB-DL.x265.10bit.HDR.DTS-HD.MA.TrueHD.7.1.Atmos-NOGRP 13.48 GB

  • 版本:高清完整版
  • 发布:

电影介绍

    西部明星 Western.Stars.2019.2160p.WEB-DL.x265.10bit.HDR.DTS-HD.MA.TrueHD.7.1.Atmos-NOGRP 13.48 GB恬不知耻玉兔风和日丽东升6. 芽嫩已过,花期已过,如今打算来做一枚果,待瓜熟蒂落,愿上天复容我是一粒核,纵身大化,在心着土处,期待另一度的芽叶。48. As far as I'm concerned, riding bicycles is a good solution to air pollution. (2011.江西)高明《琵琶记》347.不是一番寒彻骨,怎得梅花扑鼻香。

    悠悠MP4_MP4电影下载_西部明星 Western.Stars.2019.2160p.WEB-DL.x265.10bit.HDR.DTS-HD.MA.TrueHD.7.1.Atmos-NOGRP 13.48 GB

◎片  名 西部明星 Western Stars / 西部之星
◎年  代 2019
◎产  地 美国
◎类  别 纪录片 / 音乐
◎语  言 英语
◎上映日期 2019-09-12(多伦多电影节) / 2019-10-25(美国)
◎IMDb评分  7.6/10 from 1805 users
◎IMDb链接  https://www.imdb.com/title/tt10687158/
◎豆瓣评分 8.1/10 from 404 users
◎豆瓣链接 https://movie.douban.com/subject/34663538/
◎片  长 83分钟
◎导  演 托姆·齐穆尼 Thom Zimny
       布鲁斯·斯普林斯汀 Bruce Springsteen
◎编  剧 
◎主  演 布鲁斯·斯普林斯汀 Bruce Springsteen
       Patti Scialfa Patti Scialfa

◎简  介

  该片也是70岁的斯普林斯汀的最新专辑的同名电影,他与《斯普林斯汀在百老汇》的导演Thom Zimny一起执导,聚焦他如今的生活、心态和对音乐和舞台的感悟,还有他那有100年历史、“充满灵性”的谷仓,他如何回头和向前看,“我花了35年除掉自己性格中那些毁灭性的东西”。

◎获奖情况

  第67届美国音效剪辑协会奖 (2020)
  金卷轴奖 最佳音乐片音乐剪辑(提名)
    


    
Video
ID           : 1
Format       : HEVC
Format/Info      : High Efficiency Video Coding
Format profile       : Main [email protected]@High
HDR format       : SMPTE ST 2086, HDR10 compatible
Codec ID         : V_MPEGH/ISO/HEVC
Duration         : 1 h 23 min
Bit rate         : 14.5 Mb/s
Width        : 3 840 pixels
Height       : 1 596 pixels
Display aspect ratio     : 2.40:1
Frame rate mode      : Constant
Frame rate       : 23.976 FPS
Color space      : YUV
Chroma subsampling       : 4:2:0 (Type 2)
Bit depth        : 10 bits
Bits/(Pixel*Frame)       : 0.099
Stream size      : 8.41 GiB (62%)
Default          : Yes
Forced       : No
Color range      : Limited
Color primaries      : BT.2020
Transfer characteristics     : PQ
Matrix coefficients      : BT.2020 non-constant
Mastering display color primaries    : BT.2020
Mastering display luminance      : min: 0.0050 cd/m2, max: 1000 cd/m2
Maximum Content Light Level      : 589 cd/m2
Maximum Frame-Average Light Level    : 58 cd/m2

Audio #1
ID           : 2
Format       : MLP FBA 16-ch
Format/Info      : Meridian Lossless Packing FBA with 16-channel presentation
Commercial name      : Dolby TrueHD with Dolby Atmos
Codec ID         : A_TRUEHD
Duration         : 1 h 23 min
Bit rate mode        : Variable
Bit rate         : 3 871 kb/s
Maximum bit rate     : 5 568 kb/s
Channel(s)       : 8 channels
Channel layout       : L R C LFE Ls Rs Lb Rb
Sampling rate        : 48.0 kHz
Frame rate       : 1 200.000 FPS (40 SPF)
Compression mode     : Lossless
Stream size      : 2.25 GiB (17%)
Title        : TrueHD 7.1 Atmos
Language         : English
Default          : Yes
Forced       : No
Number of dynamic objects    : 15
Bed channel count        : 1 channel
Bed channel configuration    : LFE

Audio #2
ID           : 3
Format       : DTS XLL
Format/Info      : Digital Theater Systems
Commercial name      : DTS-HD Master Audio
Codec ID         : A_DTS
Duration         : 1 h 23 min
Bit rate mode        : Variable
Bit rate         : 3 365 kb/s
Channel(s)       : 8 channels
Channel layout       : C L R LFE Lb Rb Lss Rss
Sampling rate        : 48.0 kHz
Frame rate       : 93.750 FPS (512 SPF)
Bit depth        : 24 bits
Compression mode     : Lossless
Stream size      : 1.95 GiB (15%)
Title        : DTS-HD MA 7.1
Language         : English
Default          : No
Forced       : No

Audio #3
ID           : 4
Format       : AC-3
Format/Info      : Audio Coding 3
Commercial name      : Dolby Digital
Format settings      : Dolby Surround EX
Codec ID         : A_AC3
Duration         : 1 h 23 min
Bit rate mode        : Constant
Bit rate         : 640 kb/s
Channel(s)       : 6 channels
Channel layout       : L R C LFE Ls Rs
Sampling rate        : 48.0 kHz
Frame rate       : 31.250 FPS (1536 SPF)
Compression mode     : Lossy
Delay relative to video      : 8 ms
Stream size      : 381 MiB (3%)
Title        : DD 5.1
Language         : English
Service kind         : Complete Main
Default          : No
Forced       : No

Audio #4
ID           : 5
Format       : E-AC-3 JOC
Format/Info      : Enhanced AC-3 with Joint Object Coding
Commercial name      : Dolby Digital Plus with Dolby Atmos
Codec ID         : A_EAC3
Duration         : 1 h 23 min
Bit rate mode        : Constant
Bit rate         : 768 kb/s
Channel(s)       : 6 channels
Channel layout       : L R C LFE Ls Rs
Sampling rate        : 48.0 kHz
Frame rate       : 31.250 FPS (1536 SPF)
Compression mode     : Lossy
Stream size      : 457 MiB (3%)
Title        : DDP 5.1 Atmos
Language         : English
Service kind         : Complete Main
Default          : Yes
Forced       : No
Complexity index     : 16
Number of dynamic objects    : 15
Bed channel count        : 1 channel
Bed channel configuration    : LFE

Text #1
ID           : 6
Format       : UTF-8
Codec ID         : S_TEXT/UTF8
Codec ID/Info        : UTF-8 Plain Text
Duration         : 1 h 18 min
Bit rate         : 66 b/s
Count of elements        : 864
Stream size      : 38.3 KiB (0%)
Title        : English
Language         : English
Default          : Yes
Forced       : No

Text #2
ID           : 7
Format       : UTF-8
Codec ID         : S_TEXT/UTF8
Codec ID/Info        : UTF-8 Plain Text
Duration         : 1 h 21 min
Bit rate         : 12 b/s
Count of elements        : 269
Stream size      : 7.74 KiB (0%)
Title        : Chinese Mandarin Traditional
Language         : Chinese
Default          : No
Forced       : No

Text #3
ID           : 8
Format       : UTF-8
Codec ID         : S_TEXT/UTF8
Codec ID/Info        : UTF-8 Plain Text
Duration         : 1 h 21 min
Bit rate         : 16 b/s
Count of elements        : 267
Stream size      : 9.78 KiB (0%)
Title        : Czech
Language         : Czech
Default          : No
Forced       : No

Text #4
ID           : 9
Format       : UTF-8
Codec ID         : S_TEXT/UTF8
Codec ID/Info        : UTF-8 Plain Text
Duration         : 1 h 21 min
Bit rate         : 18 b/s
Count of elements        : 265
Stream size      : 10.8 KiB (0%)
Title        : Danish
Language         : Danish
Default          : No
Forced       : No

Text #5
ID           : 10
Format       : UTF-8
Codec ID         : S_TEXT/UTF8
Codec ID/Info        : UTF-8 Plain Text
Duration         : 1 h 14 min
Bit rate         : 20 b/s
Count of elements        : 247
Stream size      : 11.4 KiB (0%)
Title        : German
Language         : German
Default          : No
Forced       : No

Text #6
ID           : 11
Format       : UTF-8
Codec ID         : S_TEXT/UTF8
Codec ID/Info        : UTF-8 Plain Text
Duration         : 1 h 21 min
Bit rate         : 18 b/s
Count of elements        : 249
Stream size      : 11.3 KiB (0%)
Title        : Spanish Latin American
Language         : Spanish
Default          : No
Forced       : No

Text #7
ID           : 12
Format       : UTF-8
Codec ID         : S_TEXT/UTF8
Codec ID/Info        : UTF-8 Plain Text
Duration         : 1 h 14 min
Bit rate         : 19 b/s
Count of elements        : 245
Stream size      : 10.5 KiB (0%)
Title        : Spanish European
Language         : Spanish
Default          : No
Forced       : No

Text #8
ID           : 13
Format       : UTF-8
Codec ID         : S_TEXT/UTF8
Codec ID/Info        : UTF-8 Plain Text
Duration         : 1 h 21 min
Bit rate         : 18 b/s
Count of elements        : 267
Stream size      : 11.1 KiB (0%)
Title        : Finnish
Language         : Finnish
Default          : No
Forced       : No

Text #9
ID           : 14
Format       : UTF-8
Codec ID         : S_TEXT/UTF8
Codec ID/Info        : UTF-8 Plain Text
Duration         : 1 h 21 min
Bit rate         : 19 b/s
Count of elements        : 316
Stream size      : 11.9 KiB (0%)
Title        : French European
Language         : French
Default          : No
Forced       : No

Text #10
ID           : 15
Format       : UTF-8
Codec ID         : S_TEXT/UTF8
Codec ID/Info        : UTF-8 Plain Text
Duration         : 1 h 21 min
Bit rate         : 23 b/s
Count of elements        : 267
Stream size      : 14.3 KiB (0%)
Title        : Hebrew
Language         : Hebrew
Default          : No
Forced       : No

Text #11
ID           : 16
Format       : UTF-8
Codec ID         : S_TEXT/UTF8
Codec ID/Info        : UTF-8 Plain Text
Duration         : 1 h 21 min
Bit rate         : 18 b/s
Count of elements        : 242
Stream size      : 11.0 KiB (0%)
Title        : Italian
Language         : Italian
Default          : No
Forced       : No

Text #12
ID           : 17
Format       : UTF-8
Codec ID         : S_TEXT/UTF8
Codec ID/Info        : UTF-8 Plain Text
Duration         : 1 h 14 min
Bit rate         : 17 b/s
Count of elements        : 254
Stream size      : 9.50 KiB (0%)
Title        : Japanese
Language         : Japanese
Default          : No
Forced       : No

Text #13
ID           : 18
Format       : UTF-8
Codec ID         : S_TEXT/UTF8
Codec ID/Info        : UTF-8 Plain Text
Duration         : 1 h 21 min
Bit rate         : 21 b/s
Count of elements        : 269
Stream size      : 12.8 KiB (0%)
Title        : Korean
Language         : Korean
Default          : No
Forced       : No

Text #14
ID           : 19
Format       : UTF-8
Codec ID         : S_TEXT/UTF8
Codec ID/Info        : UTF-8 Plain Text
Duration         : 1 h 21 min
Bit rate         : 17 b/s
Count of elements        : 265
Stream size      : 10.5 KiB (0%)
Title        : Norwegian
Language         : Norwegian
Default          : No
Forced       : No

Text #15
ID           : 20
Format       : UTF-8
Codec ID         : S_TEXT/UTF8
Codec ID/Info        : UTF-8 Plain Text
Duration         : 1 h 21 min
Bit rate         : 18 b/s
Count of elements        : 249
Stream size      : 11.1 KiB (0%)
Title        : Portuguese Brazilian
Language         : Portuguese
Default          : No
Forced       : No

Text #16
ID           : 21
Format       : UTF-8
Codec ID         : S_TEXT/UTF8
Codec ID/Info        : UTF-8 Plain Text
Duration         : 1 h 21 min
Bit rate         : 18 b/s
Count of elements        : 267
Stream size      : 11.1 KiB (0%)
Title        : Portuguese European
Language         : Portuguese
Default          : No
Forced       : No

Text #17
ID           : 22
Format       : UTF-8
Codec ID         : S_TEXT/UTF8
Codec ID/Info        : UTF-8 Plain Text
Duration         : 1 h 21 min
Bit rate         : 18 b/s
Count of elements        : 267
Stream size      : 10.8 KiB (0%)
Title        : Swedish
Language         : Swedish
Default          : No
Forced       : No

Text #18
ID           : 23
Format       : UTF-8
Codec ID         : S_TEXT/UTF8
Codec ID/Info        : UTF-8 Plain Text
Duration         : 1 h 21 min
Bit rate         : 39 b/s
Count of elements        : 269
Stream size      : 23.6 KiB (0%)
Title        : Thai
Language         : Thai
Default          : No
Forced       : No

Menu
00:00:00.000         : en:Chapter 01
00:03:47.143         : en:Chapter 02
00:09:10.925         : en:Chapter 03
00:15:24.132         : en:Chapter 04
00:20:37.195         : en:Chapter 05
00:25:13.596         : en:Chapter 06
00:31:13.498         : en:Chapter 07
00:37:17.862         : en:Chapter 08
00:43:57.178         : en:Chapter 09
00:48:21.151         : en:Chapter 10
00:50:20.395         : en:Chapter 11
00:58:09.406         : en:Chapter 12
01:03:03.658         : en:Chapter 13
01:09:51.066         : en:Chapter 14
01:15:57.807         : en:Chapter 15
01:18:58.863         : en:Chapter 16

    

悠悠MP4_MP4电影下载_西部明星 Western.Stars.2019.2160p.WEB-DL.x265.10bit.HDR.DTS-HD.MA.TrueHD.7.1.Atmos-NOGRP 13.48 GB
悠悠MP4_MP4电影下载_西部明星 Western.Stars.2019.2160p.WEB-DL.x265.10bit.HDR.DTS-HD.MA.TrueHD.7.1.Atmos-NOGRP 13.48 GB
悠悠MP4_MP4电影下载_西部明星 Western.Stars.2019.2160p.WEB-DL.x265.10bit.HDR.DTS-HD.MA.TrueHD.7.1.Atmos-NOGRP 13.48 GB

磁力链接


    
    贺新郎 辛弃疾故关衰草遍,离别正堪悲!电影下载,MP4下载,高清电影,电影排行榜,电影票房71、A letter from home is a priceless treasure.

热门电影下载

最新电影下载

电影票房排行榜