电影下载

应许之地 The.King.2017.1080p.BluRay.x265-RARBG 1.69 GB

应许之地 The.King.2017.1080p.BluRay.x265-RARBG 1.69 GB

  • 版本:高清完整版
  • 发布:

电影介绍

    应许之地 The.King.2017.1080p.BluRay.x265-RARBG 1.69 GB日落西富丽千钧一发堂皇山11. 改变,每个人都能够做,但不是每个人都愿意做,更重要的是这种改变到底适不适合自己。高三时期的性情和性格,其实已经“秉定乾坤”了,要全方位地改变自己,很难。改变,就是要冲破不适合自己且阻碍自己学习进步的习惯。12. Glad to see you have made some progress in Chinese learning and I’m writing to tell you something about our next lesson.(2017.全国Ⅰ卷)45.马之将死,其鸣也哀;人之将死,其言也善。

    悠悠MP4_MP4电影下载_应许之地 The.King.2017.1080p.BluRay.x265-RARBG 1.69 GB

◎片  名 应许之地 Promised Land / Promised Land
◎年  代 2017
◎产  地 德国 / 美国
◎类  别 纪录片
◎语  言 英语
◎上映日期 2017-05-20(戛纳电影节) / 2018-04-19(德国) / 2018-06-22(美国)
◎IMDb评分  6.8/10 from 1172 users
◎IMDb链接  https://www.imdb.com/title/tt6775942/
◎豆瓣评分 /10 from 0 users
◎豆瓣链接 https://movie.douban.com/subject/27018307/
◎片  长 107分钟
◎导  演 尤金·加里奇 Eugene Jarecki
◎编  剧 尤金·加里奇 Eugene Jarecki
       克里斯托弗·圣约翰 Christopher St. John
◎主  演 亚历克·鲍德温 Alec Baldwin
       詹姆斯·卡维尔 James Carville
       Rosanne Cash Rosanne Cash
       Chuck D. Chuck D.
       拉娜德雷 Lana Del Rey

◎简  介

  Forty years after the death of Elvis Presley, a musical road trip across America in his 1963 Rolls Royce explores how a co村生泊长拼音:cūn shēng bó cháng释义:指生长于村野。泊,水泊。出处:明·无名氏《孟母三移》第一折他乃是公子人家子孙,强似您这等村生泊长,无指教的小厮每。”示例:无untry boy lost his authenticity and became a king while his country lost her democracy and became an empire.
    


    
Video
ID           : 1
Format       : HEVC
Format/Info      : High Efficiency Video Coding
Format profile       : Main [email protected]@Main
Codec ID         : hev1
Codec ID/Info        : High Efficiency Video Coding
Duration         : 1 h 48 min
Bit rate         : 2 001 kb/s
Width        : 1 920 pixels
Height       : 804 pixels
Display aspect ratio     : 2.40:1
Frame rate mode      : Constant
Frame rate       : 23.976 (24000/1001) FPS
Color space      : YUV
Chroma subsampling       : 4:2:0
Bit depth        : 10 bits
Bits/(Pixel*Frame)       : 0.054
Stream size      : 1.52 GiB (90%)
Writing library      : x265 3.3+4-rarbg-30eb4de83092:[Linux][GCC 8.3.1][64 bit] 10bit
Encoding settings        : cpuid=1111039 / frame-threads=4 / wpp / no-pmode / no-pme / no-psnr / no-ssim / log-level=2 / input-csp=1 / input-res=1920x804 / interlace=0 / total-frames=0 / level-idc=0 / high-tier=1 / uhd-bd=0 / ref=4 / no-allow-non-conformance / no-repeat-headers / annexb / no-aud / no-hrd / info / hash=0 / no-temporal-layers / open-gop / min-keyint=23 / keyint=250 / gop-lookahead=0 / bframes=4 / b-adapt=2 / b-pyramid / bframe-bias=0 / rc-lookahead=25 / lookahead-slices=4 / scenecut=40 / hist-scenecut=0 / radl=0 / no-splice / no-intra-refresh / ctu=64 / min-cu-size=8 / rect / no-amp / max-tu-size=32 / tu-inter-depth=1 / tu-intra-depth=1 / limit-tu=0 / rdoq-level=2 / dynamic-rd=0.00 / no-ssim-rd / signhide / no-tskip / nr-intra=0 / nr-inter=0 / no-constrained-intra / strong-intra-smoothing / max-merge=3 / limit-refs=3 / limit-modes / me=3 / subme=3 / merange=57 / temporal-mvp / no-frame-dup / no-hme / weightp / no-weightb / no-analyze-src-pics / deblock=0:0 / no-sao / no-sao-non-deblock / rd=4 / selective-sao=0 / no-early-skip / rskip / no-fast-intra / no-tskip-fast / no-cu-lossless / no-b-intra / no-splitrd-skip / rdpenalty=0 / psy-rd=2.00 / psy-rdoq=1.00 / no-rd-refine / no-lossless / cbqpoffs=0 / crqpoffs=0 / rc=abr / bitrate=2000 / qcomp=0.60 / qpstep=4 / stats-write=0 / stats-read=2 / cplxblur=20.0 / qblur=0.5 / ipratio=1.40 / pbratio=1.30 / aq-mode=3 / aq-strength=1.00 / cutree / zone-count=0 / no-strict-cbr / qg-size=32 / no-rc-grain / qpmax=69 / qpmin=0 / no-const-vbv / sar=1 / overscan=0 / videoformat=5 / range=0 / colorprim=2 / transfer=2 / colormatrix=2 / chromaloc=0 / display-window=0 / cll=0,0 / min-luma=0 / max-luma=1023 / log2-max-poc-lsb=8 / vui-timing-info / vui-hrd-info / slices=1 / no-opt-qp-pps / no-opt-ref-list-length-pps / no-multi-pass-opt-rps / scenecut-bias=0.05 / hist-threshold=0.01 / no-opt-cu-delta-qp / no-aq-motion / no-hdr10 / no-hdr10-opt / no-dhdr10-opt / no-idr-recovery-sei / analysis-reuse-level=0 / analysis-save-reuse-level=0 / analysis-load-reuse-level=0 / scale-factor=0 / refine-intra=0 / refine-inter=0 / refine-mv=1 / refine-ctu-distortion=0 / no-limit-sao / ctu-info=0 / no-lowpass-dct / refine-analysis-type=0 / copy-pic=1 / max-ausize-factor=1.0 / no-dynamic-refine / no-single-sei / no-hevc-aq / no-svt / no-field / qp-adaptation-range=1.00 / no-scenecut-aware-qpconformance-window-offsets / right=0 / bottom=0
Encoded date         : UTC 2022-04-09 09:44:51
Tagged date      : UTC 2022-04-09 09:44:51
Codec configuration box      : hvcC

Audio
ID           : 2
Format       : AAC LC
Format/Info      : Advanced Audio Codec Low Complexity
Codec ID         : mp4a-40-2
Duration         : 1 h 48 min
Bit rate mode        : Constant
Bit rate         : 224 kb/s
Channel(s)       : 6 channels
Channel layout       : C L R Ls Rs LFE
Sampling rate        : 48.0 kHz
Frame rate       : 46.875 FPS (1024 SPF)
Compression mode     : Lossy
Stream size      : 174 MiB (10%)
Language         : English
Default          : Yes
Alternate group      : 1
Encoded date         : UTC 2022-04-09 09:44:51
Tagged date      : UTC 2022-04-09 09:44:51

    

悠悠MP4_MP4电影下载_应许之地 The.King.2017.1080p.BluRay.x265-RARBG 1.69 GB
悠悠MP4_MP4电影下载_应许之地 The.King.2017.1080p.BluRay.x265-RARBG 1.69 GB
悠悠MP4_MP4电影下载_应许之地 The.King.2017.1080p.BluRay.x265-RARBG 1.69 GB

磁力链接


    
    西窗过雨,怪瑶佩流空,玉筝调柱。复值接舆醉,狂歌五柳前。电影下载,MP4下载,高清电影,电影排行榜,电影票房Given that Olympic Foods does benefit from lowered processing costs due to its years of experience, the prediction about maximum profits is still in lake of solid ground.

热门电影下载

最新电影下载

电影票房排行榜