电影下载

登月计划 Moonshot.2022.1080p.HMAX.WEBRip.DDP5.1.Atmos.x264-TEPES 6.56 GB

登月计划 Moonshot.2022.1080p.HMAX.WEBRip.DDP5.1.Atmos.x264-TEPES 6.56 GB

  • 版本:高清完整版
  • 发布:

电影介绍

    登月计划 Moonshot.2022.1080p.HMAX.WEBRip.DDP5.1.Atmos.x264-TEPES 6.56 GB铁树开摩肩接门庭若市踵花32. 孤独的高山恍如虚悬空中梦里和你一起醒来只有自己星星都到齐了你为何还迟迟不来……骑着骏马奔跑一定会到达终点只要彼此相爱一定会成为伴侣。阅读了你们在网上发布的夏令营布告,对此我很感兴趣。277.梨花院落溶溶月,柳絮池塘淡淡风。《寓意》

    悠悠MP4_MP4电影下载_登月计划 Moonshot.2022.1080p.HMAX.WEBRip.DDP5.1.Atmos.x264-TEPES 6.56 GB

◎片  名 登月计划 Moonshot / 火星计划
◎年  代 2022
◎产  地 美国
◎类  别 喜剧 / 爱情 / 科幻
◎语  言 英语
◎上映日期 2022-03-31(美国网络)
◎IMDb评分 
◎IMDb链接  https://www.imdb.com/title/tt12585076/
◎豆瓣评分 /10 from 0 users
◎豆瓣链接 https://movie.douban.com/subject/35446643/
◎片  长 
◎导  演 
◎编  剧 
◎主  演 拉娜·康多 Lana Condor
       梅森·古丁 Mason Gooding
       科尔·斯普罗斯 Cole Sprouse
       卢卡斯·盖奇 Lukas Gage
       扎克·布拉夫 Zach Braff
       蜜雪儿·伯托 Michelle Buteau
       克里斯蒂尼·亚当斯 Christine Adams
       埃米莉·拉德 Emily Rudd
       杰伊·古铁雷斯 Jay Gutierrez
       杰森·麦克唐纳 Jason MacDonald
       埃里克·蒂德 Eric Tiede
       阿德丁博·汤玛斯 Adetinpo Thomas
       查瑞蒂·塞万提斯 Charity Cervantes
       戴维·约翰逊 Davey Johnson

◎简  介

  拉娜·康多和科尔·斯普罗斯将主演科幻爱情喜剧片《登月计划》(Moonshot),克里斯托弗·温特鲍尔执导,Max Taxe写剧本,HBO Max出品。                                    
      设定在未来,火星被人类所能提供最好的条件改造和殖民,两名截然不同的大学生结盟,潜入了飞往火星的太空飞船,以便与他们重要的人团聚。
    


    
Video
ID           : 1
Format       : AVC
Format/Info      : Advanced Video Codec
Format profile       : [email protected]
Format settings      : CABAC / 4 Ref Frames
Format settings, CABAC       : Yes
Format settings, Reference frames    : 4 frames
Codec ID         : V_MPEG4/ISO/AVC
Duration         : 1 h 44 min
Bit rate mode        : Variable
Bit rate         : 8 250 kb/s
Maximum bit rate     : 12.4 Mb/s
Width        : 1 920 pixels
Height       : 816 pixels
Display aspect ratio     : 2.35:1
Frame rate mode      : Constant
Frame rate       : 23.976 (24000/1001) FPS
Color space      : YUV
Chroma subsampling       : 4:2:0
Bit depth        : 8 bits
Scan type        : Progressive
Bits/(Pixel*Frame)       : 0.220
Stream size      : 6.00 GiB (91%)
Writing library      : x264 core 157 r2965 861cec4
Encoding settings        : cabac=1 / ref=4 / deblock=1:0:0 / analyse=0x3:0x113 / me=hex / subme=7 / psy=1 / psy_rd=1.00:0.00 / mixed_ref=1 / me_range=16 / chroma_me=1 / trellis=1 / 8x8dct=1 / cqm=0 / deadzone=21,11 / fast_pskip=1 / chroma_qp_offset=-2 / threads=25 / lookahead_threads=4 / sliced_threads=0 / nr=0 / decimate=1 / interlaced=0 / bluray_compat=0 / constrained_intra=0 / bframes=3 / b_pyramid=2 / b_adapt=1 / b_bias=0 / direct=1 / weightb=1 / open_gop=0 / weightp=2 / keyint=96 / keyint_min=96 / scenecut=40 / intra_refresh=0 / rc_lookahead=40 / rc=2pass / mbtree=1 / bitrate=8250 / ratetol=1.0 / qcomp=0.60 / qpmin=0 / qpmax=69 / qpstep=4 / cplxblur=20.0 / qblur=0.5 / vbv_maxrate=12375 / vbv_bufsize=6187 / nal_hrd=vbr / filler=0 / ip_ratio=1.40 / aq=1:1.00
Default          : No
Forced       : No
Color range      : Limited
Color primaries      : BT.709
Transfer characteristics     : BT.709
Matrix coefficients      : BT.709

Audio
ID           : 2
Format       : E-AC-3 JOC
Format/Info      : Enhanced AC-3 with Joint Object Coding
Commercial name      : Dolby Digital Plus with Dolby Atmos
Codec ID         : A_EAC3
Duration         : 1 h 44 min
Bit rate mode        : Constant
Bit rate         : 768 kb/s
Channel(s)       : 6 channels
Channel layout       : L R C LFE Ls Rs
Sampling rate        : 48.0 kHz
Frame rate       : 31.250 FPS (1536 SPF)
Compression mode     : Lossy
Stream size      : 572 MiB (9%)
Language         : English
Service kind         : Complete Main
Default          : No
Forced       : No
Complexity index     : 16
Number of dynamic objects    : 15
Bed channel count        : 1 channel
Bed channel configuration    : LFE

Text #1
ID           : 3
Format       : UTF-8
Codec ID         : S_TEXT/UTF8
Codec ID/Info        : UTF-8 Plain Text
Duration         : 1 h 38 min
Bit rate         : 73 b/s
Count of elements        : 1668
Stream size      : 53.4 KiB (0%)
Language         : English
Default          : No
Forced       : No

Text #2
ID           : 4
Format       : UTF-8
Codec ID         : S_TEXT/UTF8
Codec ID/Info        : UTF-8 Plain Text
Duration         : 1 h 41 min
Bit rate         : 80 b/s
Count of elements        : 1811
Stream size      : 59.6 KiB (0%)
Title        : SDH
Language         : English
Default          : No
Forced       : No

Text #3
ID           : 5
Format       : UTF-8
Codec ID         : S_TEXT/UTF8
Codec ID/Info        : UTF-8 Plain Text
Duration         : 1 h 42 min
Bit rate         : 89 b/s
Count of elements        : 1570
Stream size      : 67.7 KiB (0%)
Title        : European
Language         : Spanish
Default          : No
Forced       : No

Text #4
ID           : 6
Format       : UTF-8
Codec ID         : S_TEXT/UTF8
Codec ID/Info        : UTF-8 Plain Text
Duration         : 1 h 42 min
Bit rate         : 90 b/s
Count of elements        : 1608
Stream size      : 67.9 KiB (0%)
Language         : Danish
Default          : No
Forced       : No

Text #5
ID           : 7
Format       : UTF-8
Codec ID         : S_TEXT/UTF8
Codec ID/Info        : UTF-8 Plain Text
Duration         : 1 h 42 min
Bit rate         : 87 b/s
Count of elements        : 1726
Stream size      : 65.8 KiB (0%)
Title        : Latin American
Language         : Spanish
Default          : No
Forced       : No

Text #6
ID           : 8
Format       : UTF-8
Codec ID         : S_TEXT/UTF8
Codec ID/Info        : UTF-8 Plain Text
Duration         : 1 h 42 min
Bit rate         : 84 b/s
Count of elements        : 1625
Stream size      : 63.6 KiB (0%)
Language         : Croatian
Default          : No
Forced       : No

Text #7
ID           : 9
Format       : UTF-8
Codec ID         : S_TEXT/UTF8
Codec ID/Info        : UTF-8 Plain Text
Duration         : 1 h 42 min
Bit rate         : 90 b/s
Count of elements        : 1619
Stream size      : 67.9 KiB (0%)
Language         : Hungarian
Default          : No
Forced       : No

Text #8
ID           : 10
Format       : UTF-8
Codec ID         : S_TEXT/UTF8
Codec ID/Info        : UTF-8 Plain Text
Duration         : 1 h 42 min
Bit rate         : 143 b/s
Count of elements        : 1640
Stream size      : 108 KiB (0%)
Language         : Macedonian
Default          : No
Forced       : No

Text #9
ID           : 11
Format       : UTF-8
Codec ID         : S_TEXT/UTF8
Codec ID/Info        : UTF-8 Plain Text
Duration         : 1 h 42 min
Bit rate         : 84 b/s
Count of elements        : 1521
Stream size      : 64.0 KiB (0%)
Language         : Dutch
Default          : No
Forced       : No

Text #10
ID           : 12
Format       : UTF-8
Codec ID         : S_TEXT/UTF8
Codec ID/Info        : UTF-8 Plain Text
Dur24. 春山空静,月上窗,唯有思念声;玉楼纱帘,银河倾淡,夜色浓。心相印,思念千里寄明月,也许你入梦,记得枕边念有我。亲爱的,点亮心灯,一生一世。ation         : 1 h 42 min
Bit rate         : 87 b/s
Count of elements        : 1611
Stream size      : 65.8 KiB (0%)
Language         : Norwegian
Default          : No
Forced       : No

Text #11
ID           : 13
Format       : UTF-8
Codec ID         : S_TEXT/UTF8
Codec ID/Info        : UTF-8 Plain Text
Duration         : 1 h 42 min
Bit rate         : 94 b/s
Count of elements        : 1623
Stream size      : 71.4 KiB (0%)
Language         : Polish
Default          : No
Forced       : No

Text #12
ID           : 14
Format       : UTF-8
Codec ID         : S_TEXT/UTF8
Codec ID/Info        : UTF-8 Plain Text
Duration         : 1 h 42 min
Bit rate         : 92 b/s
Count of elements        : 1623
Stream size      : 69.9 KiB (0%)
Language         : Portuguese
Default          : No
Forced       : No

Text #13
ID           : 15
Format       : UTF-8
Codec ID         : S_TEXT/UTF8
Codec ID/Info        : UTF-8 Plain Text
Duration         : 1 h 42 min
Bit rate         : 94 b/s
Count of elements        : 1626
Stream size      : 71.1 KiB (0%)
Title        : Brazilian
Language         : Portuguese
Default          : No
Forced       : No

Text #14
ID           : 16
Format       : UTF-8
Codec ID         : S_TEXT/UTF8
Codec ID/Info        : UTF-8 Plain Text
Duration         : 1 h 42 min
Bit rate         : 90 b/s
Count of elements        : 1624
Stream size      : 68.4 KiB (0%)
Language         : Romanian
Default          : No
Forced       : No

Text #15
ID           : 17
Format       : UTF-8
Codec ID         : S_TEXT/UTF8
Codec ID/Info        : UTF-8 Plain Text
Duration         : 1 h 42 min
Bit rate         : 90 b/s
Count of elements        : 1623
Stream size      : 68.2 KiB (0%)
Language         : Slovak
Default          : No
Forced       : No

Text #16
ID           : 18
Format       : UTF-8
Codec ID         : S_TEXT/UTF8
Codec ID/Info        : UTF-8 Plain Text
Duration         : 1 h 42 min
Bit rate         : 88 b/s
Count of elements        : 1631
Stream size      : 66.6 KiB (0%)
Language         : Slovenian
Default          : No
Forced       : No

Text #17
ID           : 19
Format       : UTF-8
Codec ID         : S_TEXT/UTF8
Codec ID/Info        : UTF-8 Plain Text
Duration         : 1 h 42 min
Bit rate         : 91 b/s
Count of elements        : 1613
Stream size      : 68.7 KiB (0%)
Language         : Finnish
Default          : No
Forced       : No

Text #18
ID           : 20
Format       : UTF-8
Codec ID         : S_TEXT/UTF8
Codec ID/Info        : UTF-8 Plain Text
Duration         : 1 h 42 min
Bit rate         : 91 b/s
Count of elements        : 1616
Stream size      : 68.9 KiB (0%)
Language         : Swedish
Default          : No
Forced       : No

Text #19
ID           : 21
Format       : UTF-8
Codec ID         : S_TEXT/UTF8
Codec ID/Info        : UTF-8 Plain Text
Duration         : 1 h 42 min
Bit rate         : 81 b/s
Count of elements        : 1610
Stream size      : 61.3 KiB (0%)
Language         : Serbian
Default          : No
Forced       : No

Text #20
ID           : 22
Format       : UTF-8
Codec ID         : S_TEXT/UTF8
Codec ID/Info        : UTF-8 Plain Text
Duration         : 1 h 42 min
Bit rate         : 94 b/s
Count of elements        : 1623
Stream size      : 71.0 KiB (0%)
Language         : Czech
Default          : No
Forced       : No

Text #21
ID           : 23
Format       : UTF-8
Codec ID         : S_TEXT/UTF8
Codec ID/Info        : UTF-8 Plain Text
Duration         : 1 h 42 min
Bit rate         : 134 b/s
Count of elements        : 1641
Stream size      : 101 KiB (0%)
Language         : Bulgarian
Default          : No
Forced       : No

    

悠悠MP4_MP4电影下载_登月计划 Moonshot.2022.1080p.HMAX.WEBRip.DDP5.1.Atmos.x264-TEPES 6.56 GB
悠悠MP4_MP4电影下载_登月计划 Moonshot.2022.1080p.HMAX.WEBRip.DDP5.1.Atmos.x264-TEPES 6.56 GB
悠悠MP4_MP4电影下载_登月计划 Moonshot.2022.1080p.HMAX.WEBRip.DDP5.1.Atmos.x264-TEPES 6.56 GB

磁力链接


    
    西园日日扫林亭,依旧赏新晴。黄蜂频扑秋千索,有当时、纤手香凝。惆怅双鸳不到,幽阶一夜苔生。113杜甫:旅夜书怀电影下载,MP4下载,高清电影,电影排行榜,电影票房There is no evidence to suggest that…

热门电影下载

最新电影下载

电影票房排行榜