电影下载

我的防疫伙伴 A.Wall.Away.2022.1080p.WEBRip.x265-RARBG 1.39 GB

我的防疫伙伴 A.Wall.Away.2022.1080p.WEBRip.x265-RARBG 1.39 GB

  • 版本:高清完整版
  • 发布:

电影介绍

    我的防疫伙伴 A.Wall.Away.2022.1080p.WEBRip.x265-RARBG 1.39 GB学无止境国色万点繁星天香5. 缘分是可遇不可求的,但是,如果缘分来到我们身边,我们却不去珍惜的话,那我们将不会再得到。缘分来临的时候,它给了我们一瞬间触电般的感觉,缘分尽了的时候,它让我们久久不能释怀。因此,放下已经失去的,珍惜此刻拥有的,才是最重要的。(2)比较级+and+比较级(The world is getting smaller and smaller.)245.可怜夜半虚前席,不问苍生问鬼神。《贾生》

    悠悠MP4_MP4电影下载_我的防疫伙伴 A.Wall.Away.2022.1080p.WEBRip.x265-RARBG 1.39 GB

◎片  名 我的防疫伙伴 MyCorona / #My Corona
◎年  代 2021
◎产  地 美国
◎类  别 剧情
◎语  言 英语
◎上映日期 2021-07-01(美国)
◎IMDb评分  6.1/10 from 28 users
◎IMDb链接  https://www.imdb.com/title/tt12432558/
◎豆瓣评分 /10 from 0 users
◎豆瓣链接 https://movie.douban.com/subject/35669622/
◎片  长 89分钟
◎导  演 
◎编  剧 
◎主  演 克里斯托·卡森 Crystal Carson

◎简  介

  本片拍攝於居家防疫期間,由導演透過遠端視訊軟體執導,導演於拍攝期間並未到過片場,也未與演員直接接觸。新冠肺炎肆虐,加州發布了封城居家令,洛杉磯的一棟公寓,各自隔離在家卻又相互影響的鄰居們,如何在疫情之下,成為彼此的防疫神隊友。夢想著來到好萊塢成為演員的女服務生、看似直男癌卻有著細膩一面的汽車銷售員、旅居香港卻因疫情失業回到美國的單身女子、熱情奔放的洛杉磯愛樂次席大提琴家,他們通通失業了。一群看似八竿子打不著的鄰居,在居家令的限制下,他們重新審視自己,也認識了周圍這群防疫好夥伴。
    

Video
ID        : 1
Format       : HEVC
Format/Info      : High Efficiency Video Coding
Format profile      : Main [email protected]@Main
Codec ID       : hev1
Codec ID/Info      : High Efficiency Video Coding
Duration       : 1 h 29 min
Bit rate       : 2 001 kb/s
Width        : 1 920 pixels
Height       : 812 pixels
Display aspect ratio     : 2.35:1
Frame rate mode      : Constant
Frame rate       : 23.976 (24000/1001) FPS
Color space      : YUV
Chroma subsampling     : 4:2:0
Bit depth       : 10 bits
Bits/(Pixel*Frame)     : 0.054
Stream size      : 1.25 GiB (90%)
Writing library      : x265 3.3+4-rarbg-30eb4de83092:[Linux][GCC 8.3.1][64 bit] 10bit
Encoding settings     : cpuid=1111039 / frame-threads=4 / wpp / no-pmode / no-pme / no-psnr / no-ssim / log-level=2 / input-csp=1 / input-res=1920x812 / interlace=0 / total-frames=0 / level-idc=0 / high-tier=1 / uhd-bd=0 / ref=4 / no-allow-non-conformance / no-repeat-headers / annexb / no-aud / no-hrd / info / hash=0 / no-temporal-layers / open-gop / min-keyint=23 / keyint=250 / gop-lookahead=0 / bframes=4 / b-adapt=2 / b-pyramid / bframe-bias=0 / rc-lookahead=25 / lookahead-slices=4 / scenecut=40 /杯弓市虎拼音:bēi gōng shì hǔ释义:指捕风捉影,疑虑重重,自相惊扰。参见杯弓蛇影”、三人成虎”。出处:詧眖《学界风潮记·天津商学界之活动》同时传来上海有罢市之说,以致杯弓市虎,危机伺伏,人心恐惶,险状万分。”示例:无 hist-scenecut=0 / radl=0 / no-splice / no-intra-refresh / ctu=64 / min-cu-size=8 / rect / no-amp / max-tu-size=32 / tu-inter-depth=1 / tu-intra-depth=1 / limit-tu=0 / rdoq-level=2 / dynamic-rd=0.00 / no-ssim-rd / signhide / no-tskip / nr-intra=0 / nr-inter=0 / no-constrained-intra / strong-intra-smoothing / max-merge=3 / limit-refs=3 / limit-modes / me=3 / subme=3 / merange=57 / temporal-mvp / no-frame-dup / no-hme / weightp / no-weightb / no-analyze-src-pics / deblock=0:0 / no-sao / no-sao-non-deblock / rd=4 / selective-sao=0 / no-early-skip / rskip / no-fast-intra / no-tskip-fast / no-cu-lossless / no-b-intra / no-splitrd-skip / rdpenalty=0 / psy-rd=2.00 / psy-rdoq=1.00 / no-rd-refine / no-lossless / cbqpoffs=0 / crqpoffs=0 / rc=abr / bitrate=2000 / qcomp=0.60 / qpstep=4 / stats-write=0 / stats-read=2 / cplxblur=20.0 / qblur=0.5 / ipratio=1.40 / pbratio=1.30 / aq-mode=3 / aq-strength=1.00 / cutree / zone-count=0 / no-strict-cbr / qg-size=32 / no-rc-grain / qpmax=69 / qpmin=0 / no-const-vbv / sar=1 / overscan=0 / videoformat=5 / range=0 / colorprim=2 / transfer=2 / colormatrix=2 / chromaloc=0 / display-window=0 / cll=0,0 / min-luma=0 / max-luma=1023 / log2-max-poc-lsb=8 / vui-timing-info / vui-hrd-info / slices=1 / no-opt-qp-pps / no-opt-ref-list-length-pps / no-multi-pass-opt-rps / scenecut-bias=0.05 / hist-threshold=0.01 / no-opt-cu-delta-qp / no-aq-motion / no-hdr10 / no-hdr10-opt / no-dhdr10-opt / no-idr-recovery-sei / analysis-reuse-level=0 / analysis-save-reuse-level=0 / analysis-load-reuse-level=0 / scale-factor=0 / refine-intra=0 / refine-inter=0 / refine-mv=1 / refine-ctu-distortion=0 / no-limit-sao / ctu-info=0 / no-lowpass-dct / refine-analysis-type=0 / copy-pic=1 / max-ausize-factor=1.0 / no-dynamic-refine / no-single-sei / no-hevc-aq / no-svt / no-field / qp-adaptation-range=1.00 / no-scenecut-aware-qpconformance-window-offsets / right=0 / bottom=0
Encoded date      : UTC 2022-09-26 17:25:26
Tagged date      : UTC 2022-09-26 17:25:26
Codec configuration box    : hvcC

Audio
ID        : 2
Format       : AAC LC
Format/Info      : Advanced Audio Codec Low Complexity
Codec ID       : mp4a-40-2
Duration       : 1 h 29 min
Bit rate mode      : Constant
Bit rate       : 224 kb/s
Channel(s)       : 2 channels
Channel layout      : L R
Sampling rate      : 44.1 kHz
Frame rate       : 43.066 FPS (1024 SPF)
Compression mode     : Lossy
Stream size      : 143 MiB (10%)
Language       : English
Default       : Yes
Alternate group      : 1
Encoded date      : UTC 2022-09-26 17:25:26
Tagged date      : UTC 2022-09-26 17:25:26


悠悠MP4_MP4电影下载_我的防疫伙伴 A.Wall.Away.2022.1080p.WEBRip.x265-RARBG 1.39 GB
悠悠MP4_MP4电影下载_我的防疫伙伴 A.Wall.Away.2022.1080p.WEBRip.x265-RARBG 1.39 GB
悠悠MP4_MP4电影下载_我的防疫伙伴 A.Wall.Away.2022.1080p.WEBRip.x265-RARBG 1.39 GB

磁力链接


    【公告】本站新增网址查询小程序,实时更新悠悠MP4可访问地址,请下载保存
    
    阑干倚尽犹慵去,几度黄昏雨。晚春盘马踏青苔,曾傍绿阴深驻。落花犹在,香屏空掩,人面知何处?江山故宅空文藻,云雨荒台岂梦思!电影下载,MP4下载,高清电影,电影排行榜,电影票房To reverse (check / control) the trend (tendency) is not a light task (an easy job), and it requires (demands / involves / entails) a different state of main towards (attitude towards / outlook on)…

热门电影下载

最新电影下载

电影票房排行榜