电影下载

子弹列车 Bullet.Train.2022.2160p.WEB-DL.DDP5.1.DV.MP4.x265-DVSUX 13.40 GB

子弹列车 Bullet.Train.2022.2160p.WEB-DL.DDP5.1.DV.MP4.x265-DVSUX 13.40 GB

  • 版本:高清完整版
  • 发布:

电影介绍

    子弹列车 Bullet.Train.2022.2160p.WEB-DL.DDP5.1.DV.MP4.x265-DVSUX 13.40 GB车夜幕低五光十色垂水马龙无论怎样,生活需要你正确应对。想通了,就是天堂;想不通,就是地狱。作为一个活跃的年轻人,我喜欢体育运动和户外活动。121.勿以恶小而为之,勿以善小而不为。

    悠悠MP4_MP4电影下载_子弹列车 Bullet.Train.2022.2160p.WEB-DL.DDP5.1.DV.MP4.x265-DVSUX 13.40 GB

◎片  名 子弹列车 Bullet Train / 杀手疾风号 / 杀手列车(港) / 新干线 / 瓢虫 / 杀手界·疾风号 / ブレット・トレイン
◎年  代 2022
◎产  地 日本 / 美国
◎类  别 喜剧 / 动作 / 惊悚
◎语  言 英语 / 日语 / 西班牙语 / 俄语
◎上映日期 2022-08-03(洛迦诺电影节) / 2022-08-05(美国)
◎IMDb评分  7.5/10 from 83320 users
◎IMDb链接  39. 曾经以为过不去的,终究会过去。痛苦有时候是一种提升,否则,我们流的眼泪也就毫无意义。https://www.imdb.com/title/tt12593682/
◎豆瓣评分 7.8/10 from 6473 users
◎豆瓣链接 https://movie.douban.com/subject/35118954/
◎片  长 126分钟
◎导  演 大卫·雷奇 David Leitch
◎编  剧 扎克·奥尔维奇 Zak Olkewicz
       伊坂幸太郎 Kotaro Isaka
◎主  演 布拉德·皮特 Brad Pitt
       乔伊·金 Joey King
       亚伦·泰勒-约翰逊 Aaron Taylor-Johnson
       布莱恩·泰里·亨利 Brian Tyree Henry
       安德鲁·浩二 Andrew Koji
       真田广之 Hiroyuki Sanada
       迈克尔·珊农 Michael Shannon
       桑德拉·布洛克 Sandra Bullock
       坏痞兔 Bad Bunny
       罗根·勒曼 Logan Lerman
       莎姬·贝兹 Zazie Beetz
       丘增 Masi Oka
       凯伦·福原 Karen Fukuhara
       凯文·秋吉·程 Kevin Akiyoshi Ching
       明基·村上 Minchi Murakami
       武谷香织 Kaori Taketani
       吉姆·加里蒂 Jim Garrity
       埃梅丽娜·亚当斯 Emelina Adams
       詹森·郑 Jenson Cheng
       约书亚·萨达索 Yoshua Sudarso
       约翰娜·沃茨 Johanna Watts
       胡里奥·加贝 Julio Gabay
       安德烈·穆尼奥斯 Andrea Muñoz
       阿诺德·陈 Arnold Chun
       帕沙·D.林奇尼科夫 Pasha D. Lychnikoff
       米歇尔·李 Michelle Lee
       贾森·马修·史密斯 Jason Matthew Smith
       大卫·雷奇 David Leitch
       艾恩 Ayne
       雷·巴佛 Ray Buffer
       达伦·凯兰 Darren Keilan
       莉昂·马苏达 Leon Masuda
       伊戈·米基塔斯 Ego Mikitas
       瑞安·雷诺兹 Ryan Reynolds
       查宁·塔图姆 Channing Tatum
       哈里森·徐 Harrison Xu

◎简  介

  在东京前往盛冈一趟疾驰的列车上,有五名杀手,他们发现各自的任务其实有着关联。于是问题变成了:谁能活着下车?终点站又有什么在等待着他们?                                    
      影片改编自伊坂幸太郎小说《瓢虫》。
    


    
Video
ID           : 1
Format       : HEVC
Format/Info      : High Efficiency Video Coding
Format profile       : Main [email protected]@High
HDR format       : Dolby Vision, Version 1.0, dvhe.05.06, BL+RPU
Codec ID         : dvhe
Codec ID/Info        : High Efficiency Video Coding with Dolby Vision
Duration         : 2 h 6 min
Bit rate         : 14.5 Mb/s
Width        : 3 840 pixels
Height       : 1 584 pixels
Display aspect ratio     : 2.40:1
Frame rate mode      : Constant
Frame rate       : 23.976 (24000/1001) FPS
Color space      : YUV
Chroma subsampling       : 4:2:0
Bit depth        : 10 bits
Bits/(Pixel*Frame)       : 0.100
Stream size      : 12.8 GiB (96%)
Default          : Yes
Alternate group      : 1
Encoded date         : UTC 2022-09-26 15:55:05
Tagged date      : UTC 2022-09-26 15:58:48
Codec configuration box      : hvcC+dvcC

Audio
ID           : 2
Format       : E-AC-3
Format/Info      : Enhanced AC-3
Commercial name      : Dolby Digital Plus
Codec ID         : ec-3
Duration         : 2 h 6 min
Bit rate mode        : Constant
Bit rate         : 640 kb/s
Maximum bit rate     : 676 kb/s
Channel(s)       : 6 channels
Channel layout       : L R C LFE Ls Rs
Sampling rate        : 48.0 kHz
Frame rate       : 31.250 FPS (1536 SPF)
Compression mode     : Lossy
Stream size      : 579 MiB (4%)
Title        : English
Language         : English
Service kind         : Complete Main
Default          : Yes
Alternate group      : 1
Tagged date      : UTC 2022-09-26 15:58:48

Text #1
ID           : 3
Format       : Timed Text
Codec ID         : tx3g
Duration         : 2 h 6 min
Bit rate mode        : Variable
Bit rate         : 95 b/s
Frame rate       : 0.701 FPS
Stream size      : 88.1 KiB (0%)
Title        : English
Language         : English
Forced       : No
Encoded date         : UTC 2022-09-26 15:58:48
Tagged date      : UTC 2022-09-26 15:58:48

Text #2
ID           : 4
Format       : Timed Text
Codec ID         : tx3g
Duration         : 1 h 55 min
Bit rate mode        : Variable
Bit rate         : 2 b/s
Frame rate       : 0.022 FPS
Stream size      : 2.07 KiB (0%)
Title        : English
Language         : English
Forced       : No
Encoded date         : UTC 2022-09-26 15:58:48
Tagged date      : UTC 2022-09-26 15:58:48

Text #3
ID           : 5
Format       : Timed Text
Codec ID         : tx3g
Duration         : 2 h 0 min
Bit rate mode        : Variable
Bit rate         : 74 b/s
Frame rate       : 0.533 FPS
Stream size      : 64.9 KiB (0%)
Title        : English
Language         : English
Forced       : No
Encoded date         : UTC 2022-09-26 15:58:48
Tagged date      : UTC 2022-09-26 15:58:48

Text #4
ID           : 6
Format       : Timed Text
Codec ID         : tx3g
Duration         : 2 h 0 min
Bit rate mode        : Variable
Bit rate         : 55 b/s
Frame rate       : 0.335 FPS
Stream size      : 48.2 KiB (0%)
Title        : Dutch
Language         : Dutch
Forced       : No
Encoded date         : UTC 2022-09-26 15:58:48
Tagged date      : UTC 2022-09-26 15:58:48

Text #5
ID           : 7
Format       : Timed Text
Codec ID         : tx3g
Duration         : 2 h 0 min
Bit rate mode        : Variable
Bit rate         : 63 b/s
Frame rate       : 0.413 FPS
Stream size      : 55.3 KiB (0%)
Title        : Italian
Language         : Italian
Forced       : No
Encoded date         : UTC 2022-09-26 15:58:48
Tagged date      : UTC 2022-09-26 15:58:48

Text #6
ID           : 8
Format       : Timed Text
Codec ID         : tx3g
Duration         : 2 h 0 min
Bit rate mode        : Variable
Bit rate         : 70 b/s
Frame rate       : 0.444 FPS
Stream size      : 61.2 KiB (0%)
Title        : Portuguese-BR
Language         : Portuguese
Forced       : No
Encoded date         : UTC 2022-09-26 15:58:48
Tagged date      : UTC 2022-09-26 15:58:48

Text #7
ID           : 9
Format       : Timed Text
Codec ID         : tx3g
Duration         : 2 h 0 min
Bit rate mode        : Variable
Bit rate         : 64 b/s
Frame rate       : 0.445 FPS
Stream size      : 56.4 KiB (0%)
Title        : Spanish
Language         : Spanish
Forced       : No
Encoded date         : UTC 2022-09-26 15:58:48
Tagged date      : UTC 2022-09-26 15:58:48

Text #8
ID           : 10
Format       : Timed Text
Codec ID         : tx3g
Duration         : 2 h 0 min
Bit rate mode        : Variable
Bit rate         : 70 b/s
Frame rate       : 0.443 FPS
Stream size      : 62.0 KiB (0%)
Title        : Spanish-EU
Language         : Spanish
Forced       : No
Encoded date         : UTC 2022-09-26 15:58:48
Tagged date      : UTC 2022-09-26 15:58:48

Text #9
ID           : 11
Format       : Timed Text
Codec ID         : tx3g
Duration         : 2 h 0 min
Bit rate mode        : Variable
Bit rate         : 60 b/s
Frame rate       : 0.331 FPS
Stream size      : 53.1 KiB (0%)
Title        : Swedish
Language         : Swedish
Forced       : No
Encoded date         : UTC 2022-09-26 15:58:48
Tagged date      : UTC 2022-09-26 15:58:48

    

There is a very limited amount of devices that can play dv muxed this way so keep that in mind before downloading.

Screenshots are tonemapped to 8bit SDR for compatibility

悠悠MP4_MP4电影下载_子弹列车 Bullet.Train.2022.2160p.WEB-DL.DDP5.1.DV.MP4.x265-DVSUX 13.40 GB
悠悠MP4_MP4电影下载_子弹列车 Bullet.Train.2022.2160p.WEB-DL.DDP5.1.DV.MP4.x265-DVSUX 13.40 GB
悠悠MP4_MP4电影下载_子弹列车 Bullet.Train.2022.2160p.WEB-DL.DDP5.1.DV.MP4.x265-DVSUX 13.40 GB

磁力链接


    
    【公告】本站新增网址查询小程序,实时更新悠悠MP4可访问地址,请下载保存
    
    踏莎行 吴文英翠影红霞映朝日,鸟飞不到吴天长。电影下载,MP4下载,高清电影,电影排行榜,电影票房Although it is commonly (widely / generally) held (felt / accepted / agreed) that …, it is unlikely to be true that…

热门电影下载

最新电影下载

电影票房排行榜