电影下载

子弹列车 Bullet.Train.2022.2160p.WEB-DL.x265.10bit.SDR.DDP5.1-NOGRP 11.16 GB

子弹列车 Bullet.Train.2022.2160p.WEB-DL.x265.10bit.SDR.DDP5.1-NOGRP 11.16 GB

  • 版本:高清完整版
  • 发布:

电影介绍

    子弹列车 Bullet.Train.2022.2160p.WEB-DL.x265.10bit.SDR.DDP5.1-NOGRP 11.16 GB赤愁眉瘦骨嶙峋苦脸日炎炎30. 缺陷有时可以成就另一种美丽。一只漏水的木桶是不完美的,每次打水,都会因为它的缺陷而洒下一半的水。可是不经意间,那些洒下的水却成了小花们的生命之泉。就是这些漏下的水浇灌出人们脚下的一片芬芳。不错,缺陷并非永远都是不好的,也许不经意间就造就了另一种美丽。12.一些人 …而另外一些人 … Some people… while others…303.月子弯弯照九州,几家欢乐几家愁。《竹枝歌》

    悠悠MP4_MP4电影下载_子弹列车 Bullet.Train.2022.2160p.WEB-DL.x265.10bit.SDR.DDP5.1-NOGRP 11.16 GB

◎片  名 子弹列车 Bullet Train / 杀手疾风号 / 杀手列车(港) / 新干线 / 瓢虫 / 杀手界·疾风号 / ブレット・トレイン
◎年  代 2022
◎产  地 日本 / 美国
◎类  别 喜剧 / 动作 / 惊悚
◎语  言 英语 / 日语 / 西班牙语 / 俄语
◎上映日期 2022-08-03(洛迦诺电影节) / 2022-08-05(美国)
◎IMDb评分  7.5/10 from 83023 users
◎IMDb链接  https://www.imdb.com/title/tt12593682/
◎豆瓣评分 7.8/10 from 6414 users
◎豆瓣链接 https://movie.douban.com/subject/35118954/
◎片  长 126分钟
◎导  演 大卫·雷奇 David Leitch
◎编  剧 扎克·奥尔维奇 Zak Olkewicz
       伊坂幸太郎 Kotaro Isaka
◎主  演 布拉德·皮特 Brad Pitt
       乔伊·金 Joey King
       亚伦·泰勒-约翰逊 Aaron Taylor-Johnson
       布莱恩·泰里·亨利 Brian Tyree Henry
       安德鲁·浩二 Andrew Koji
       真田广之 Hiroyuki Sanada
       迈克尔·珊农 Michael Shannon
       桑德拉·布洛克 Sandra Bullock
       坏痞兔 Bad Bunny
       罗根·勒曼 Logan Lerman
       莎姬·贝兹 Zazie Beetz
       丘增 Masi Oka
       凯伦·福原 Karen Fukuhara
       凯文·秋吉·程 Kevin Akiyoshi Ching
       明基·村上 Minchi Murakami
       武谷香织 Kaori Taketani
       吉姆·加里蒂 Jim Garrity
       埃梅丽娜·亚当斯 Emelina Adams
       詹森·郑 Jenson Cheng
       约书亚·萨达索 Yoshua Sudarso
       约翰娜·沃茨 Johanna Watts
       胡里奥·加贝 Julio Gabay
       安德烈·穆尼奥斯 Andrea Muñoz
       阿诺德·陈 Arnold Chun
       帕沙·D.林奇尼科夫 Pasha D. Lychnikoff
       米歇尔·李 Michelle Lee
       贾森·马修·史密斯 Jason Matthew Smith
       大卫·雷奇 David Leitch
       艾恩 Ayne
       雷·巴佛 Ray Buffer
       达伦·凯兰 Darren Keilan
       莉昂·马苏达 Leon Masuda
       伊戈·米基塔斯 Ego Mikitas
       瑞安·雷诺兹 Ryan Reynolds
       查宁·塔图姆 Channing Tatum
       哈里森·徐 Harrison Xu

◎简  介

  在东京前往盛冈一趟疾驰的列车上,有五名杀手,他们发现各自的任务其实有着关联。于是问题变成了:谁能活着下车?终点站又有什么在等待着他们?                                    
      影片改编自伊坂幸太郎小说《瓢虫》。
    


    
Video
ID           : 1
Format       : HEVC
Format/Info      : High Efficiency Video Coding
Format profile       : Main [email protected]@High
Codec ID         : V_MPEGH/ISO/HEVC
Duration         : 2 h 6 min
Bit rate         : 12.0 Mb/s
Width        : 3 840 pixels
Height       : 1 584 pixels
Display aspect ratio     : 2.40:1
Frame rate mode      : Constant
Frame rate       : 23.976 (24000/1001) FPS
Color space      : YUV
Chroma subsampling       : 4:2:0
Bit depth        : 10 bits
Bits/(Pixel*Frame)       : 0.082
Stream size      : 10.6 GiB (95%)
Default          : Yes
Forced       : No
Color range      : Limited
Color primaries      : BT.709
Transfer characteristics     : BT.709
Matrix coefficients      : BT.709

Audio
ID           : 2
Format       : E-AC-3
Format/Info      : Enhanced AC-3
Commercial name      : Dolby Digital Plus
Codec ID         : A_EAC3
Duration         : 2 h 6 min
Bit rate mode        : Constant
Bit rate         : 640 kb/s
Channel(s)       : 6 channels
Channel layout       : L R C LFE Ls Rs
Sampling rate        : 48.0 kHz
Frame rate       : 31.250 FPS (1536 SPF)
Compression mode     : Lossy
Stream size      : 580 MiB (5%)
Language         : English
Service kind         : Complete Main
Default          : No
Forced       : No

Text #1
ID           : 3
Format       : UTF-8
Codec ID         : S_TEXT/UTF8
Codec ID/Info        : UTF-8 Plain Text
Duration         : 1 h 54 min
Bit rate         : 2 b/s
Frame rate       : 0.011 FPS
Count of elements        : 77
Stream size      : 1.7849. 遇到对的人之后,眼角眉梢都是你,四面八方都是你,上天入地都是你,成也是你,败也是你。 KiB (0%)
Title        : FORCED
Language         : English
Default          : No
Forced       : Yes

Text #2
ID           : 4
Format       : UTF-8
Codec ID         : S_TEXT/UTF8
Codec ID/Info        : UTF-8 Plain Text
Duration         : 1 h 57 min
Bit rate         : 62 b/s
Frame rate       : 0.273 FPS
Count of elements        : 1924
Stream size      : 54.1 KiB (0%)
Language         : English
Default          : Yes
Forced       : No

Text #3
ID           : 5
Format       : UTF-8
Codec ID         : S_TEXT/UTF8
Codec ID/Info        : UTF-8 Plain Text
Duration         : 2 h 5 min
Bit rate         : 79 b/s
Frame rate       : 0.353 FPS
Count of elements        : 2656
Stream size      : 72.9 KiB (0%)
Title        : SDH
Language         : English
Default          : No
Forced       : No

Text #4
ID           : 6
Format       : UTF-8
Codec ID         : S_TEXT/UTF8
Codec ID/Info        : UTF-8 Plain Text
Duration         : 2 h 4 min
Bit rate         : 57 b/s
Frame rate       : 0.213 FPS
Count of elements        : 1600
Stream size      : 53.0 KiB (0%)
Title        : European
Language         : Spanish
Default          : No
Forced       : No

Text #5
ID           : 7
Format       : UTF-8
Codec ID         : S_TEXT/UTF8
Codec ID/Info        : UTF-8 Plain Text
Duration         : 2 h 4 min
Bit rate         : 51 b/s
Frame rate       : 0.214 FPS
Count of elements        : 1607
Stream size      : 47.3 KiB (0%)
Title        : Latin American
Language         : Spanish
Default          : No
Forced       : No

Text #6
ID           : 8
Format       : UTF-8
Codec ID         : S_TEXT/UTF8
Codec ID/Info        : UTF-8 Plain Text
Duration         : 2 h 4 min
Bit rate         : 51 b/s
Frame rate       : 0.199 FPS
Count of elements        : 1492
Stream size      : 46.7 KiB (0%)
Language         : Italian
Default          : No
Forced       : No

Text #7
ID           : 9
Format       : UTF-8
Codec ID         : S_TEXT/UTF8
Codec ID/Info        : UTF-8 Plain Text
Duration         : 2 h 4 min
Bit rate         : 47 b/s
Frame rate       : 0.161 FPS
Count of elements        : 1209
Stream size      : 43.5 KiB (0%)
Language         : Dutch
Default          : No
Forced       : No

Text #8
ID           : 10
Format       : UTF-8
Codec ID         : S_TEXT/UTF8
Codec ID/Info        : UTF-8 Plain Text
Duration         : 2 h 4 min
Bit rate         : 56 b/s
Frame rate       : 0.214 FPS
Count of elements        : 1601
Stream size      : 51.8 KiB (0%)
Title        : Brazilian
Language         : Portuguese
Default          : No
Forced       : No

Text #9
ID           : 11
Format       : UTF-8
Codec ID         : S_TEXT/UTF8
Codec ID/Info        : UTF-8 Plain Text
Duration         : 2 h 4 min
Bit rate         : 50 b/s
Frame rate       : 0.160 FPS
Count of elements        : 1196
Stream size      : 46.4 KiB (0%)
Language         : Swedish
Default          : No
Forced       : No

    

悠悠MP4_MP4电影下载_子弹列车 Bullet.Train.2022.2160p.WEB-DL.x265.10bit.SDR.DDP5.1-NOGRP 11.16 GB
悠悠MP4_MP4电影下载_子弹列车 Bullet.Train.2022.2160p.WEB-DL.x265.10bit.SDR.DDP5.1-NOGRP 11.16 GB
悠悠MP4_MP4电影下载_子弹列车 Bullet.Train.2022.2160p.WEB-DL.x265.10bit.SDR.DDP5.1-NOGRP 11.16 GB

磁力链接


    
    【公告】本站新增网址查询小程序,实时更新悠悠MP4可访问地址,请下载保存
    
    送伯固归吴中谁言寸草心,报得三春辉?电影下载,MP4下载,高清电影,电影排行榜,电影票房34、Difficult the first time, easy the second.

热门电影下载

最新电影下载

电影票房排行榜