电影下载

子弹列车 Bullet.Train.2022.720p.AMZN.WEBRip.DDP5.1.x264-FLUX 3.49 GB

子弹列车 Bullet.Train.2022.720p.AMZN.WEBRip.DDP5.1.x264-FLUX 3.49 GB

  • 版本:高清完整版
  • 发布:

电影介绍

    子弹列车 Bullet.Train.2022.720p.AMZN.WEBRip.DDP5.1.x264-FLUX 3.49 GB头废寝忘食破血流兢兢业业44. 勇气是看不见的,如同镭的裂变无法目睹,但它的能量却不能低估。每个人都希望过一种平静的生活,不需要勇气的生活无疑是幸福的,但勇气就应像一把随时拔出来的刀,放在离自己最近的地方,只有这样,才能不断克服命运抛给我们的困难,最终到达成功的彼岸。diligent 勤奋的 energetic精力充沛的 humorous幽默的 attractive有吸引力的99. 桃李不言,下自成蹊。

    悠悠MP4_MP4电影下载_子弹列车 Bullet.Train.2022.720p.AMZN.WEBRip.DDP5.1.x264-FLUX 3.49 GB

◎片  名 子弹列车 Bullet Train / 杀手疾风号 / 杀手列车(港) / 新干线 / 瓢虫 / 杀手界·疾风号 / ブレット・トレイン
◎年  代 2022
◎产  地 日本 / 美国
◎类  别 喜剧 / 动作 / 惊悚
◎语  言 英语 / 日语 / 西班牙语 / 俄语
◎上映日期 2022-08-03(洛迦诺电影节) / 2022-08-05(美国)
◎IMDb评分  7.5/10 from 83023 users
◎IMDb链接  https://www.imdb.com/title/tt12593682/
◎豆瓣评分 7.8/10 from 6414 users
◎豆瓣链接 https://movie.douban.com/subject/35118954/
◎片  长 126分钟
◎导  演 大卫·雷奇 David Leitch
◎编  剧 扎克·奥尔维奇 Zak Olkewicz
       伊坂幸太郎 Kotaro Isaka
◎主  演 布拉德·皮特 Brad Pitt
       乔伊·金 Joey King
       亚伦·泰勒-约翰逊 Aaron Taylor-Johnson
       布莱恩·泰里·亨利 Brian Tyree Henry
       安德鲁·浩二 Andrew Koji
       真田广之 Hiroyuki Sanada
       迈克尔·珊农 Michael Shannon
       桑德拉·布洛克 Sandra Bullock
       坏痞兔 Bad Bunny
       罗根·勒曼 Logan Lerman
       莎姬·贝兹 Zazie Beetz
       丘增 Masi Oka
       凯伦·福原 Karen Fukuhara
       凯文·秋吉·程 Kevin Akiyoshi Ching
       明基·村上 Minchi Murakami
       武谷香织 Kaori Taketani
       吉姆·加里蒂 Jim Garrity
       埃梅丽娜·亚当斯 Emelina Adams
       詹森·郑 Jenson Cheng
       约书亚·萨达索 Yoshua Sudarso
       约翰娜·沃茨 Johanna Watts
       胡里奥·加贝 Julio Gabay
       安德烈·穆尼奥斯 Andrea Muñoz
       阿诺德·陈 Arnold Chun
       帕沙·D.林奇尼科夫 Pasha D. Lychnikoff
       米歇尔·李 Michelle Lee
       贾森·马修·史密斯 Jason Matthew Smith
       大卫·雷奇 David Leitch
       艾恩 Ayne
       雷·巴佛 Ray Buffer
       达伦·凯兰 Darren Keilan
       莉昂·马苏达 Leon Masuda
       伊戈·米基塔斯 Ego Mikitas
       瑞安·雷诺兹 Ryan Reynolds
       查宁·塔图姆 Channing Tatum
       哈里森·徐 Harrison Xu

◎简  介

  在东京前往盛冈一趟疾驰的列车上,有五名杀手,他们发现各自的任务其实有着关联。于是问题变成了:谁能活着下车?终点站又有什么在等待着他们?                                    
      影片改编自伊坂幸太郎小说《瓢虫》。
    


    
Video
ID           : 1
Format       : AVC
Format/Info      : Advanced Video Codec
Format profile       : [email protected]
Format settings      : CABAC / 4 Ref Frames
Format settings, CABAC       : Yes
Format settings, Reference frames    : 4 frames
Codec ID         : V_MPEG4/ISO/AVC
Duration         : 2 h 6 min
Bit rate mode        : Constant
Bit rate         : 3 303 kb/s
Nominal bit rate     : 4 000 kb/s
Width        : 1 248 pixels
Height       : 520 pixels
Display aspect ratio     : 2.40:1
Frame rate mode      : Constant
Frame rate       : 23.976 (24000/1001) FPS
Color space      : YUV
Chroma subsampling       : 4:2:0
Bit depth        : 8 bits
Scan type        : Progressive
Bits/(Pixel*Frame)       : 0.212
Stream size      : 2.93 GiB (84%)
Default          : No
Forced       : No
Color range      : Limited
Color primaries      : BT.709
Transfer characteristics     : BT.709
Matrix coefficients      : BT.709

Audio
ID           : 2
Format       : E-AC-3
Format/Info      : Enhanced AC-3
Commercial name      : Dolby Digital Plus
Codec ID         : A_EAC3
Duration         : 2 h 6 min
Bit rate mode        : Constant
Bit rate         : 640 kb/s
Channel(s)       : 6 channels
Channel layout       : L R C LFE Ls Rs
Sampling rate        : 48.0 kHz
Frame rate       : 31.250 FPS (1536 SPF)
Compression mode     : Lossy
Stream size      : 580 MiB (16%)
Language         : English
Service kind         : Complete Main
Default          : No
Forced       : No

Text #1
ID           : 3
Format       : UTF-8
Codec ID         : S_TEXT/UTF8
Codec ID/Info        : UTF-8 Plain Text
Duration         : 1 h 54 min
Bit rate         : 2 b/s
Frame rate       : 0.011 FPS
Count of elements        : 77
Stream size      : 1.78 KiB (0%)
Title        : Forced
Language         : English
Default          : Yes
Forced       : Yes

Text #2
ID           : 4
Format       : UTF-8
Codec ID         : S_TEXT/UTF8
Codec ID/Info        : UTF-8 Plain Text
Duration         : 1 h 57 min
Bit rate         : 62 b/s
Frame rate       : 0.273 FPS
Count of elements        : 1924
Stream size      : 54.1 KiB (0%)
Language         : English
Default          : No
Forced       : No

Text #3
ID           : 5
Format       : UTF-8
Codec ID         : S_TEXT/UTF8
Codec ID/Info        : UTF-8 Plain Text
Duration         : 2 h 5 min
Bit rate         : 79 b/s
Frame rate       : 0.353 FPS
Count of elements        : 2656
Stream size      : 72.9 KiB (0%)
Title        : SDH
Language         : English
Default          : No
Forced       : No

Text #4
ID           : 6
Format       : UTF-8
Codec ID         : S_TEXT/UTF8
Codec ID/Info        : UTF-8 Plain Text
Duration         : 2 h 4 min
Bit rate         : 57 b/s
Frame rate       : 0.213 FPS
Count of elements        : 1600
Stream size      : 53.0 KiB (0%)
Title        : European
Language         : Spanish
Default          : No
Forced       : No

Text #5
ID           : 7
Format       : UTF-8
Codec ID         : S_TEXT/UTF8
Codec ID/Info        : UTF-8 Plain Text
Duration         : 2 h 4 min
Bit rate         : 51 b/s
Frame rate       : 0.214 FPS
Count of elements        : 1607
Stream size      : 47.3 KiB (0%)
Title        : Latin American
Language         : Spanish
Default          : No
Forced       : No

Text #6
ID           : 8
Format       : UTF-8
Codec ID         : S_TEXT/UTF8
Codec ID/Info        : UTF-8 Plain Text
Duration         : 2 h 4 min
Bit rate         : 51 b/s
Frame rate       : 0.199 FPS
Count of elements        : 1492
Stream size      : 46.7 KiB (0%)
Language         : Italian
Default          : No
Forced       : No

Text #7
ID           : 9
Format       : UTF-8
Codec ID         : S_TEXT/UTF8
Codec ID/Info        : UTF-8 Plain Text
Duration         : 2 h 4 min
Bit rate         : 47 b/s
Frame rate       : 0.161 FPS
Count of elements        : 1209
Stream size      : 43.5 KiB (0%)
Language         : Dutch
Default          : No
Forced       : No

Text #8
ID           : 10
Format       : UTF-8
Codec ID         : S_TEXT/UTF8
Codec ID/Info        : UTF-8 Plain Text
Duration         : 2 h 4 min
Bit rate         : 56 b/s
Frame rate       : 0.214 FPS
Count of elements        : 1601
Stream size      : 51.8 KiB (0%)
Title        : Brazilian
Language         : Portuguese
Default          : No
Forced       : No

Text #9
ID           : 11
Format       : UTF-8
Codec ID         : S_TEXT/UTF8
Codec ID/Info        : UTF-8 Plain Text
Duration         : 2 h 4 min
Bit rate         : 50 b/s
Frame rate       : 0.160 FPS
Count of elements        : 1196
Stream size      : 46.4 KiB (0%)
Language         : Swedish
Default  存心不良拼音:cún xīn bù liáng释义:存心怀着某种心思或打算。指存着坏心眼。出处:清·吴趼人《二十年目睹之怪现状》第一百六回他不服查账,非但是有弊病,一定是存心不良的了。”示例:无        : No
Forced       : No

Menu
02:06:36.000         : en:Credits

    

悠悠MP4_MP4电影下载_子弹列车 Bullet.Train.2022.720p.AMZN.WEBRip.DDP5.1.x264-FLUX 3.49 GB
悠悠MP4_MP4电影下载_子弹列车 Bullet.Train.2022.720p.AMZN.WEBRip.DDP5.1.x264-FLUX 3.49 GB
悠悠MP4_MP4电影下载_子弹列车 Bullet.Train.2022.720p.AMZN.WEBRip.DDP5.1.x264-FLUX 3.49 GB

磁力链接


    
    【公告】本站新增网址查询小程序,实时更新悠悠MP4可访问地址,请下载保存
    
    饧香更、酒冷踏青路;会暗识、夭桃朱户。向晚骤、宝马雕鞍,醉襟惹、乱花飞絮。正轻寒轻暖漏水,半阴半晴云暮。禁火天、已是试新妆,岁华到、三分佳处。清明看、汉蜡传宫炬,散翠烟、飞入槐府。敛兵卫、阊阖门开,住传宣、又还休务。清秋幕府井梧寒,独宿江城蜡炬残。电影下载,MP4下载,高清电影,电影排行榜,电影票房While individuals have primary responsibility for learning new skills and finding work, both industry and government have some obligation to provide them with the means of doing so.

热门电影下载

最新电影下载

电影票房排行榜