电影下载

幻灭 Lost.Illusions.2021.FRENCH.720p.BluRay.H264.AAC-VXT 1.81 GB

幻灭 Lost.Illusions.2021.FRENCH.720p.BluRay.H264.AAC-VXT 1.81 GB

  • 版本:高清完整版
  • 发布:

电影介绍

    幻灭 Lost.Illusions.2021.FRENCH.720p.BluRay.H264.AAC-VXT 1.81 GB花秋色宜不可计数人团锦簇5. 生命不也如一场雨吗?你曾无知地在其间雀跃,你曾痴迷地在其间沉吟——但更多的时候,你得忍受那些寒冷和潮湿,那些无奈与寂寥,并且以晴日的幻想来度日。我们应该严格遵守交通规则,而不是抱怨交通堵塞。356.万事俱备,只欠东风。

    悠悠MP4_MP4电影下载_幻灭 Lost.Illusions.2021.FRENCH.720p.BluRay.H264.AAC-VXT 1.81 GB

◎片  名 幻灭 Illusions perdues / 人间喜剧 / La Comédie humaine / Lost Illusions / 巴黎梦想家(台)
◎年  代 2021
◎产  地 法国
◎类  别 剧情 / 历史
◎语  言 法语
◎上映日期 2021-09-05(威尼斯电影节) / 2021-10-20(法国)
◎IMDb评分  7.5/10 from 1541 users
◎IMDb链接  https://www.imdb.com/title/tt10505316/
◎豆瓣评分 7.3/10 from 199 users
◎豆瓣链接 https://movie.douban.com/subject/34779516/
◎片  长 144分钟
◎导  演 泽维尔·吉亚诺利 Xavier Giannoli
◎编  剧 泽维尔·吉亚诺利 Xavier Giannoli
       巴尔扎克 Honoré de Balzac
◎主  演 本杰明·瓦赞 Benjamin Voisin
       塞西尔·德·弗朗斯 Cécile De France
       文森特·拉科斯特 Vincent Lacoste
       泽维尔·多兰 Xavier Dolan
       莎乐美·德瓦斯 Salomé Dewaels
       让娜·巴利巴尔 Jeanne Balibar
       安德烈·马尔孔 André Marcon
       路易多·德·朗克桑 Louis-Do de Lencquesaing
       热拉尔·德帕迪约 Gérard Depardieu
       让-弗朗索瓦·斯泰弗南 Jean-François Stévenin
       让-玛丽·弗兰 Jean-Marie Frin
       亚历克西斯·巴尔博萨 Alexis Barbosa

◎简  介

  影片改编自巴尔扎克撰写的同名小说,讲述梦想成为作家的年轻诗人吕邦普雷(沃辛饰)离开昂古莱姆,只为巴黎的灯光。这部背景设置在19世纪的影片投资超1870万欧元,已于今夏法国开机,并将持续拍摄到10月底。

◎获奖情况

  第78届威尼斯电影节 (2021)
  主竞赛单元 金狮奖 (提名)
  泽维尔·吉亚诺利

  第47届法国凯撒电影奖 (2022)
  最佳影片(提名)
  最佳导演(提名)
  泽维尔·吉亚诺利最佳男配角(提名)
  泽维尔·多兰 / 文森特·拉科斯特最佳女配角(提名)
  让娜·巴利巴尔 / 塞西尔·德·弗朗斯最佳新人男演员(提名)
  本杰明·瓦赞最佳新人女演员(提名)
  莎乐美·德瓦斯最佳改编剧本(提名)
  最佳摄影(提名)
  最佳剪辑(提名)
  最佳音效(提名)
  最佳服装(提名)
  最佳布景(提名)
  最佳视觉效果(提名)
    


    
Video
ID           : 1
Format       : AVC
Format/Info      : Advanced Video Codec
Format profile       : [email protected]
Format settings      : CABAC / 4 Ref Frames
Format settings, CABAC       : Yes
Format settings, Reference frames    : 4 frames
Codec ID         : avc1
Codec ID/Info        : Advanced Video Coding
Duration         : 2 h 29 min
Bit rate         : 1 500 kb/s
Width        : 1 280 pixels
Height       : 534 pixels
Display aspect ratio     : 2.40:1
Original display aspect ratio    : 2.40:1
Frame rate mode      : Constant
Frame rate       : 24.000 FPS
Color space      : YUV
Chroma subsampling       : 4:2:0
Bit depth        : 8 bits
Scan type        : Progressive
Bits/(Pixel*Frame)       : 0.091
Stream size      : 1.57 GiB (87%)
Writing library      : x264 core 152 r2851M ba24899
Encoding settings        : cabac=1 / ref=4 / deblock=1:-1:-1 / analyse=0x3:0x113 / me=umh / subme=9 / psy=1 / psy_rd=1.00:0.15 / mixed_ref=1 / me_range=24 / chroma_me=1 / trellis=2 / 8x8dct=1 / cqm=0 / deadzone=21,11 / fast_pskip=1 / chroma_qp_offset=-3 / threads=32 / lookahead_threads=4 / sliced_threads=0 / nr=0 / decimate=1 / interlaced=0 / bluray_compat=0 / constrained_intra=0 / bframes=3 / b_pyramid=2 / b_adapt=2 / b_bias=0 / direct=3 / weightb=1 / open_gop=0 / weightp=2 / keyint=250 / keyint_min=25 / scenecut=40 / intra_refresh=0 / rc_lookahead=50 / rc=2pass / mbtree=1 / bitrate=1500 / ratetol=1.0 / qcomp=0.60 / qpmin=0 / qpmax=69 / qpstep=4 / cplxblur=20.0 / qblur=0.5 / vbv_maxrate=31250 / vbv_bufsize=31250 / nal_hrd=none / filler=0 / ip_ratio=1.40 / aq=3:1.00
Encoded date         : UTC 2022-03-31 00:00:51
Tagged date      : UTC 2022-03-31 00:00:51
Codec configuration box      : avcC

Audio
ID           : 2
Format       : AAC LC
Format/Info      : Advanced Audio Codec Low Complexity
Codec ID         : mp4a-40-2
Duration         : 2 h 29 min
Bit rate mode        : Constant
Bit rate         : 224 kb/s
Channel(s)       : 6 channels
Channel layout       : C L R Ls Rs LFE
Sampling rate        : 48.0 kHz
Frame rate       : 46.875 FPS (1024 SPF)
Compression mode     : Lossy
Stream size      : 240 MiB (13%)
Language         : French
Default          : Yes
Alternate group      : 1
Encoded date         : UTC 2022-03-31 00:00:51
Tagged date      : UTC 2022-03-31 00:00:51

    

悠悠MP4_MP4电影下载_幻灭 Lost.Illusions.2021.FRENCH.720p.BluRay.H264.AAC-VXT 1.81 GB
悠悠MP4_MP4电影下载_幻灭 Lost.Illusions.2021.FRENCH.720p.BluRay.H264.AAC-VXT 1.81 GB
悠悠MP4_MP4电影下载_幻灭 Lost.Illusions.2021.FRENCH.720p.BluRay.H264.AAC-VXT 1.81 GB

磁力链接


    
    天 香 贺铸打起黄莺儿,莫教枝上啼。电影下载,MP4下载,高清电影,电影排行榜,电影票房15、A contented mind is a continual / perpetual feast.

热门电影下载

最新电影下载

电影票房排行榜