电影下载

谁偷了圣诞铃 A.Christmas.Mystery.2022.720p.WEB.h264-TRUFFLE 2.30 GB

谁偷了圣诞铃 A.Christmas.Mystery.2022.720p.WEB.h264-TRUFFLE 2.30 GB

  • 版本:高清完整版
  • 发布:

电影介绍

    谁偷了圣诞铃 A.Christmas.Mystery.2022.720p.WEB.h264-TRUFFLE 2.30 GB明眸惟我独尊皓千变万化齿16. 想来一个人只要往前走,大概总会碰到一连串好事的,至于倒霉的事呢?那也总该碰上一些才公平吧?可是事是死的,人是活的,就算碰到倒霉事,总奈何我不得呀!make suggestions on 对……提出建议诸葛亮114.静以修身,俭以养德。《诫子书》

    悠悠MP4_MP4电影下载_谁偷了圣诞铃 A.Christmas.Mystery.2022.720p.WEB.h264-TRUFFLE 2.30 GB

◎片  名 谁偷了圣诞铃 A Christmas Mystery / 小小小侦探
◎年  代 2022
◎产  地 美国
◎类  别 喜剧 / 悬疑
◎语  言 英语
◎上映日期 2022-11-24(美国网络)
◎IMDb评分 
◎IMDb链接  https://www.imdb.com/title/tt22207152/
◎豆瓣评分 /10 from 0 users
◎豆瓣链接 https://movie.douban.com/subject/36142222/
◎片  长 
◎导  演 亚历克斯·兰阿瑞佛罗 Alex Ranarivelo
◎编  剧 约翰·杜西 John Ducey
◎主  演 维奥莱特·麦格劳 Violet McGraw
       奥斯卡·努内斯 Oscar Nuñez
       博·布里奇斯 Beau Bridges
       艾迪·斯比安 Eddie Cibrian
       克里斯托夫·桑德斯 Christoph Sanders
       德鲁·鲍威尔 Drew Powell
       桑蒂诺·巴纳德 Santino Barnard
       莱昂纳多·捷克 Leonardo Cecchi

◎简  介

  When her best friend's dad is falsely accused of stealing the town's prized jingle bells, a young amateur sleuth and her friends must find the real thief before Christmas.
    


    
Video
ID           : 1
Format       : AVC
Format/Info      : Advanced Video Codec
Format profile       : [email protected]
Format settings      : CABAC / 4 Ref Frames
Format settings, CABAC       : Yes
Format settings, Reference frames    : 4 frames
Codec ID         : V_MPEG4/ISO/AVC
Duration         : 1 h 27 min
Bit rate mode        : Variable
Bit rate         : 3 400 kb/s
Maximum bit rate     : 5 100 kb/s
Width        : 1 280 pixels
Height       : 544 pixels
Display aspect ratio     : 2.35:1
Frame rate mode      : Constant
Frame rate       : 23.976 (24000/1001) FPS
Color space      : YUV
Chroma subsampling       : 4:2:0
Bit depth        : 8 bits
Scan type        : Progressive
Bits/(Pixel*Frame)       : 0.204
Stream size      : 2.06 GiB (90%)
Writing library      : x264 core 157 r2965 861cec4
Encoding settings        : cabac=1 / ref=4 / deblock=1:0:0 / analyse=0x1:0x111 / me=hex / subme=7 / psy=1 / psy_rd=1.00:0.00 / mixed_ref=1 / me_range=16 / chroma_me=1 / trellis=1 / 8x8dct=0 / cqm=0 / deadzone=21,11 / fast_pskip=1 / chroma_qp_offset=-2 / threads=17 / lookahead_threads=2 / sliced_threads=0 / nr=0 / decimate=1 / interlaced=0 / bluray_compat=0 / constrained_intra=0 / bframes=3 / b_pyramid=2 / b_adapt=1 / b_bias=0 / direct=1 / weightb=1 / open_gop=0 / weightp=2 / keyint=96 / keyint_min=96 / scenecut=40 / intra_refresh=0 / rc_lookahead=40 / rc=2pass / mbtree=1 / bitrate=3400 / ratetol=1.0 / qcomp=0.60 / qpmin=0 / qpmax=69 / qpstep=4 / cplxblur=20.0 / qblur=0.5 / vbv_maxrate=5100 / vbv_bufsize=2550 / nal_hrd=vbr / filler=0 / ip_ratio=1.40 / aq=1:1.00
Language         : English
Default          : Yes
Forced       : No
Color range      : Limited
Color primaries      : BT.709
Transfer characteristics     : BT.709
Matrix coefficients      : BT.709

Audio
ID           : 2
Format       : AC-3
Format/Info      : Audio Coding 3
Commercial name      : Dolby Digital
Codec ID         : A_AC3
Duration         : 1 h 27 min
Bit rate mode        : Constant
Bit rate         : 384 kb/s
Channel(s)       : 6 channels
Channel layout       : L R C LFE Ls Rs
Sampling rate        : 48.0 kHz
Frame rate       : 31.250 FPS (1536 SPF)
Compression mode     : Lossy
Stream size      : 239 MiB (10%)
Language         : English
Service kind         : Complete Main
Default          : Yes
Forced       : No

Text #1
ID           : 3
Format       : UTF-8
Codec ID         : S_TEXT/UTF8
Codec ID/Info        : UTF-8 Plain Text
Duration         : 1 h 22 min
Bit rate         : 77 b/s
Count of elements        : 1488
Stream size      : 46.8 KiB (0%)
Title        : English (United States) (SDH)
Language         : English
Default          : No
Forced       : No

Text #2
ID           : 4
Format       : UTF-8
Codec ID         : S_TEXT/UTF8
Codec ID/Info        : UTF-8 Plain Text
Duration         : 1 h 26 min
Bit rate         : 108 b/s
Count of elements        : 1361
Stream size      : 68.8 KiB (0%)
Title        : Bulgarian (Bulgaria)
Language         : Bulgarian
Default          : No
Forced       : No

Text #3
ID           : 5
Format       : UTF-8
Codec ID         : S_TEXT/UTF8
Codec ID/Info        : UTF-8 Plain Text
Duration         : 1 h 26 min
Bit rate         : 60 b/s
Count of elements        : 1361
Stream size      : 38.4 KiB (0%)
Title        : Czech (Czechia)
Language         : Czech
Default          : No
Forced       : No

Text #4
ID           : 6
Format       : UTF-8
Codec ID         : S_TEXT/UTF8
Codec ID/Info        : UTF-8 Plain Text
Duration         : 1 h 26 min
Bit rate         : 63 b/s
Count of elements        : 1346
Stream size      : 40.4 KiB (0%)
Title        : Danish (Denmark)
Language         : Danish
Default          : No
Forced       : No

Text #5
ID           : 7
Format       : UTF-8
Codec ID         : S_TEXT/UTF8
Codec ID/Info        : UTF-8 Plain Text
Duration         : 1 h 23 min
Bit rate         : 71 b/s
Count of elements        : 1153
Stream size      : 43.7 KiB (0%)
Title        : Spanish (Spain)
Language         : Spanish
Default          : No
Forced       : No

Text #6
ID           : 8
Format       : UTF-8
Codec ID         : S_TEXT/UTF8
Codec ID/Info        : UTF-8 Plain Text
Duration         : 1 h 26 min
Bit rate         : 67 b/s
Count of elements        : 1358
Stream size      : 43.0 KiB (0%)
Title        : Spanish (Latin America)
Language         : Spanish
Default          : No
Forced       : No

Text #7
ID           : 9
Format       : UTF-8
Codec ID         : S_TEXT/UTF8
Codec ID/Info        : UTF-8 Plain Text
Duration         : 1 h 26 min
Bit rate         : 63 b/s
Count of elements        : 1357
Stream size      : 40.3 KiB (0%)
Title        : Finnish (Finland)
Language         : Finnish
Default          : No
Forced       : No

Text #8
ID           : 10
Format       : UTF-8
Codec ID         : S_TEXT/UTF8
Codec ID/Info        : UTF-8 Plain Text
Duration         : 1 h 26 min
Bit rate         : 60 b/s
Count of elements        : 1357
Stream size      : 38.4 KiB (0%)
Title        : Croatian (Croatia)
Language         : Croatian
Default          : No
Forced       : No

Text #9
ID           : 11
Format       : UTF-8
Codec ID         : S_TEXT/UTF8
Codec ID/Info        : UTF-8 Plain Text
Duration         : 1 h 26 min
Bit rate         : 66 b/s
Count of elements        : 1355
Stream size      : 42.1 KiB (0%)
Title        : Hungarian (Hungary)
Language         : Hungarian
Default          : No
Forced       : No

Text #10
ID           : 12
Format       : UTF-8
Codec ID         : S_TEXT/UTF8
Codec ID/Info        : UTF-8 Plain Text
Duration         : 1 h 26 min
Bit rate         : 112 b/s
Count of elements        : 1362
Stream size      : 71.4 KiB (0%)
Title        : Macedonian (North Macedonia)
Language         : Macedonian
Default          : No
Forced       : No

Text #11
ID           : 13
Format       : UTF-8
Codec ID         : S_TEXT/UTF8
Codec ID/Info        : UTF-8 Plain Text
Duration         : 1 h 26 min
Bit rate         : 65 b/s
Count of elements        : 1302
Stream size      : 41.3 KiB (0%)
Title        : Dutch (Netherlands)
Language         : Dutch
Default          : No
Forced       : No

Text #12
ID           : 14
Format       : UTF-8
Codec ID         : S_TEXT/UTF8
Codec ID/Info        : UTF-8 Plain Text
Duration         : 1 h 26 min
Bit rate         : 60 b/s
Count of elements        : 1360
Stream size      : 38.5 KiB (0%)
Title        : Norwegian (Norway)
Language         : Norwegian
Default          : No
Forced       : No

Text #13
ID           : 15
Format       : UTF-8
Codec ID         : S_TEXT/UTF8
Codec ID/Info        : UTF-8 Plain Text
Duration         : 1 h 26 min
Bit rate         : 60 b/s
Count of elements        : 1351
Stream size      : 38.6 KiB (0%)
Title        : Polish (Poland)
Language         : Polish
Default          : No
Forced       : No

Text #14
ID           : 16
Format       : UTF-8
Codec ID         : S_TEXT/UTF8
Codec ID/Info        : UTF-8 Plain Text
Du3. 你们的恋爱不成功,全面的看,这是最好的结果。下意识里,你其实也希望有这样的结局。ration         : 1 h 26 min
Bit rate         : 68 b/s
Count of elements        : 1357
Stream size      : 43.4 KiB (0%)
Title        : Portuguese (Portugal)
Language         : Portuguese
Default          : No
Forced       : No

Text #15
ID           : 17
Format       : UTF-8
Codec ID         : S_TEXT/UTF8
Codec ID/Info        : UTF-8 Plain Text
Duration         : 1 h 26 min
Bit rate         : 63 b/s
Count of elements        : 1361
Stream size      : 40.3 KiB (0%)
Title        : Portuguese (Brazil)
Language         : Portuguese
Default          : No
Forced       : No

Text #16
ID           : 18
Format       : UTF-8
Codec ID         : S_TEXT/UTF8
Codec ID/Info        : UTF-8 Plain Text
Duration         : 1 h 26 min
Bit rate         : 62 b/s
Count of elements        : 1356
Stream size      : 39.6 KiB (0%)
Title        : Romanian (Romania)
Language         : Romanian
Default          : No
Forced       : No

Text #17
ID           : 19
Format       : UTF-8
Codec ID         : S_TEXT/UTF8
Codec ID/Info        : UTF-8 Plain Text
Duration         : 1 h 26 min
Bit rate         : 59 b/s
Count of elements        : 1360
Stream size      : 37.7 KiB (0%)
Title        : Slovak (Slovakia)
Language         : Slovak
Default          : No
Forced       : No

Text #18
ID           : 20
Format       : UTF-8
Codec ID         : S_TEXT/UTF8
Codec ID/Info        : UTF-8 Plain Text
Duration         : 1 h 26 min
Bit rate         : 56 b/s
Count of elements        : 1359
Stream size      : 35.6 KiB (0%)
Title        : Slovenian (Slovenia)
Language         : Slovenian
Default          : No
Forced       : No

Text #19
ID           : 21
Format       : UTF-8
Codec ID         : S_TEXT/UTF8
Codec ID/Info        : UTF-8 Plain Text
Duration         : 1 h 25 min
Bit rate         : 60 b/s
Count of elements        : 1356
Stream size      : 38.1 KiB (0%)
Title        : Serbian (Latin, Serbia)
Language         : Serbian
Default          : No
Forced       : No

Text #20
ID           : 22
Format       : UTF-8
Codec ID         : S_TEXT/UTF8
Codec ID/Info        : UTF-8 Plain Text
Duration         : 1 h 26 min
Bit rate         : 66 b/s
Count of elements        : 1361
Stream size      : 42.0 KiB (0%)
Title        : Swedish (Sweden)
Language         : Swedish
Default          : No
Forced       : No

Text #21
ID           : 23
Format       : UTF-8
Codec ID         : S_TEXT/UTF8
Codec ID/Info        : UTF-8 Plain Text
Duration         : 1 h 23 min
Bit rate         : 73 b/s
Count of elements        : 1671
Stream size      : 45.3 KiB (0%)
Title        : Spanish (Latin America) (SDH)
Language         : Spanish
Default          : No
Forced       : No

    

Screenshots:
悠悠MP4_MP4电影下载_谁偷了圣诞铃 A.Christmas.Mystery.2022.720p.WEB.h264-TRUFFLE 2.30 GB
A.Christmas.Mystery.2022.720p.WEB.h264-TRUFFLE
2022-11-24
title: A Christmas Mystery
source: hbomax.com
size: 2.3 GiB
runtime: 01:27:04.011
resolution: 1280 x 544
bitrate: 3,774 kb/s
audio: AC-3 @ 384 kb/s (5.1) / English
subs: English (United States) (SDH), Bulgarian (Bulgaria), Czech (Czechia), Danish
(Denmark), Spanish (Spain), Spanish (Latin America), Finnish (Finland), Croatian
(Croatia), Hungarian (Hungary), Macedonian (North Macedonia), Dutch (Netherlands),
Norwegian (Norway), Polish (Poland), Portuguese (Portugal), Portuguese (Brazil),
Romanian (Romania), Slovak (Slovakia), Slovenian (Slovenia), Serbian (Latin, Serbia),
Swedish (Sweden), Spanish (Latin America) (SDH)
url: https://www.imdb.com/title/tt22207152/

磁力链接


    
    【公告】近期迅雷频繁屏蔽资源临时解决办法
    
    罗衣著破前香在,旧意谁教攻。一春离恨懒调弦,犹有两行闲泪、宝筝前。057岑参:走马川行奉送封大夫出师西征电影下载,MP4下载,高清电影,电影排行榜,电影票房Accordingly, this assumption is simply an unproven claim.

热门电影下载

最新电影下载

电影票房排行榜