电影下载

疯狂轮滑 Rollerball.1975.2160p.BluRay.x265.10bit.SDR.DTS-HD.MA.5.1-SWTYBLZ 60.37 GB

疯狂轮滑 Rollerball.1975.2160p.BluRay.x265.10bit.SDR.DTS-HD.MA.5.1-SWTYBLZ 60.37 GB

  • 版本:高清完整版
  • 发布:

电影介绍

    疯狂轮滑 Rollerball.1975.2160p.BluRay.x265.10bit.SDR.DTS-HD.MA.5.1-SWTYBLZ 60.37 GB马到成功防不崎岖不平胜防7. 倘若希望在金色的秋天收获果实,那么在寒意侵人的早春,就该卷起裤腿,去不懈地拓荒播种耕耘,直到收获的那一天。58. I got sick and tired of doing the routine work day after day.6. 高山仰止,景行行止。

    悠悠MP4_MP4电影下载_疯狂轮滑 Rollerball.1975.2160p.BluRay.x265.10bit.SDR.DTS-HD.MA.5.1-SWTYBLZ 60.37 GB

◎片  名 疯狂轮滑 Rollerball / 滚球大战 / 极速风暴
◎年  代 1975
◎产  地 英国
◎类  别 动作 / 科幻 / 惊悚 / 运动
◎语  言 英语
◎上映日期 1975-06-25
◎IMDb评分  6.6/10 from 25773 users
◎IMDb链接  https://www.imdb.com/title/tt0073631/
◎豆瓣评分 6.1/10 from 276 users
◎豆瓣链接 https://movie.douban.com/subject/1293587/
◎片  长 125 分钟
◎导  演 诺曼·杰威森 Norman Jewison
◎编  剧 威廉·哈里森 William Harrison
◎主  演 詹姆斯·肯恩 James Caan
       约翰·豪斯曼 John Houseman
       莫德·亚当斯 Maud Adams
       罗伯特·李 Robert Lee
       拉尔夫·理查德森 Ralph Richardson

◎简  介

  在不久后的2005年,一种名为“轮滑球”(Rollerball)的新兴竞技运动以其超乎寻常的惊险、刺激吸引了大众的注意力,成为一大体育娱乐热点。每当赛季到来时,数以万计狂热的观众都会疯狂地为自己支持的队伍下注,然后守在电视前观看紧张的现场转播。然而,在这项运动的背后,却隐藏着黑暗残酷的内幕。                                    
      轮滑球融合了冰球和马球两种运动项目的特点,以个人技巧和团体协作为基础,比赛规则宽松,具有很强的对抗性。而且在该运动中,摩托车也是比赛器械之一,赛手可以驾驶摩托车做出任何动作,甚至允许一名赛手骑摩托从对方赛手身上碾过,这使轮滑球运动不仅仅限于“惊险”、“刺激 ”的范畴,而是越发显得暴力、野蛮了——球场上,可能随时会有球员在对抗中丧命。因此,国际体育团体严格限制这项运动的开展,使它成为只局限在土耳其、哈萨克斯坦等地的半底下运动,但这种局限并不能约束这项运动的残酷性向更可怕的及至发展。                                    
      亚利希·帕托威克(让·雷诺)是一名俄国大财阀,他不仅拥有一支自己的轮滑球队——骑士队,而且还收购了整个轮滑球运动的组织权。为了使这项运动给他带来丰厚的利润,野心勃勃的帕托威克对比赛规则和组织形式做了一系列的改革,使得轮滑球比赛酷似古罗马的角斗,变得更加残酷、血腥,从而越发具有吸引力和“观赏性”;同时,在帕托威克的经营下,轮滑球运动的规模也在不断扩大,各国的职业球队和球员越来越多地加入联盟中,整个比赛的水平也越来越高。                                    
      在联盟的众多队伍里,帕托威克的骑士队是一支技术高超、所向披靡、神话似的的队伍。在队长乔纳森·克罗斯(克里斯·克莱恩)和灵魂球员马库斯·瑞德里(LL Cool J)、奥罗拉(瑞贝卡·罗米吉-斯塔摩斯)的努力下,骑士队在联盟赛中取得了无可匹敌的积分,赢得了众多球迷的追随。但这一切却不能令球队老板欣喜若狂,因为他所在乎的只是球队能否晋级、能否给他带来滚滚财源——为了达到这个目的,他可以付出一切代价,包括球员的性命。目睹赛场上接连不断的悲剧和帕托威克的冷酷无情,克罗斯和队友们渐渐觉得良心不安。也许,他们应该做些什么来揭露这项野蛮运动背后的罪恶——尽管这将给他们带来杀身之祸……
    


    
Video
ID           : 1
Format       : HEVC
Format/Info      : High Efficiency Video Coding
Format profile       : Main [email protected]@High
Codec ID         : V_MPEGH/ISO/HEVC
Duration         : 2 h 4 min
Bit rate         : 65.0 Mb/s
Width        : 3 840 pixels
Height       : 2 076 pixels
Display aspect ratio     : 1.85:1
Frame rate mode      : Constant
Frame rate       : 24.000 FPS
Color space      : YUV
Chroma subsampling       : 4:2:0
Bit depth        : 10 bits
Bits/(Pixel*Frame)       : 0.340
Stream size      : 56.6 GiB (94%)
Writing library      : x265 3.0+1-ed72af837053:[Windows][GCC 8.2.0][64 bit] 10bit
Encoding settings        : cpuid=1111039 / frame-threads=6 / numa-pools=40 / wpp / no-pmode / no-pme / no-psnr / no-ssim / log-level=2 / input-csp=1 / input-res=3840x2076 / interlace=0 / total-frames=179584 / level-idc=51 / high-tier=1 / uhd-bd=0 / ref=3 / no-allow-non-conformance / repeat-headers / annexb / aud / hrd / info / hash=0 / no-temporal-layers / no-open-gop / min-keyint=1 / keyint=24 / gop-lookahead=0 / bframes=4 / b-adapt=2 / b-pyramid / bframe-bias=0 / rc-lookahead=25 / lookahead-slices=4 / scenecut=40 / radl=0 / no-splice / no-intra-refresh / ctu=64 / min-cu-size=8 / no-rect / no-amp / max-tu-size=32 / tu-inter-depth=1 / tu-intra-depth=1 / limit-tu=0 / rdoq-level=0 / dynamic-rd=0.00 / no-ssim-rd / signhide / no-tskip / nr-intra=0 / nr-inter=0 / no-constrained-intra / strong-intra-smoothing / max-merge=2 / limit-refs=3 / no-limit-modes / me=1 / subme=2 / merange=57 / temporal-mvp / weightp / no-weightb / no-analyze-src-pics / deblock=0:0 / no-sao / no-sao-non-deblock / rd=3 / no-early-skip / rskip / no-fast-intra / no-tskip-fast / no-cu-lossless / no-b-intra / no-splitrd-skip / rdpenalty=0 / psy-rd=2.00 / psy-rdoq=0.00 / no-rd-refine / no-lossless / cbqpoffs=0 / crqpoffs=0 / rc=crf / crf=20.0 / qcomp=0.60 / qpstep=4 / stats-write=0 / stats-read=0 / vbv-maxrate=160000 / vbv-bufsize=160000 / vbv-init=0.9 / crf-max=0.0 / crf-min=0.0 / ipratio=1.40 / pbratio=1.30 / aq-mode=1 / aq-strength=1.00 / cutree / zone-count=0 / no-strict-cbr / qg-size=32 / no-rc-grain / qpmax=69 / qpmin=0 / no-const-vbv / sar=1 / overscan=0 / videoformat=5 / range=0 / colorprim=2 / transfer=2 / colormatrix=2 / chromaloc=0 / display-window=0 / max-cll=0,0 / min-luma=0 / max-luma=1023 / log2-max-poc-lsb=8 / vui-timing-info / vui-hrd-info / slices=1 / opt-qp-pps / opt-ref-list-length-pps / no-multi-pass-opt-rps / scenecut-bias=0.05 / no-opt-cu-delta-qp / no-aq-motion / no-hdr / no-hdr-opt / no-dhdr10-opt / no-idr-recovery-sei / analysis-reuse-level=5 / scale-factor=0 / refine-intra=0 / refine-inter=0 / refine-mv=0 / refine-ctu-distortion=0 / no-limit-sao / ctu-info=0 / no-lowpass-dct / refine-analysis-type=0 / copy-pic=1 / max-ausize-factor=1.0 / no-dynamic-refine / no-single-sei / no-hevc-aq / qp-adaptation-range=1.00
Default          : Yes
Forced       : No

Audio #1
ID           : 2
ID in the original source medium     : 4352 (0x1100)
Format       : DTS XLL
Format/Info      : Digital Theater Systems
Commercial name      : DTS-HD Master Audio
Codec ID         : A_DTS
Duration         : 2 h 4 min
Bit rate mode        : Variable
Bit rate         : 3 223 kb/s
Channel(s)       : 6 channels
Channel layout       : C L R Ls Rs LFE
Sampling rate        : 48.0 kHz
Frame rate       : 93.750 FPS (512 SPF)
Bit depth        : 24 bits
Compression mode     : Lossless
Stream size      : 2.81 GiB (5%)
Title        : DTS-HD MA 5.1
Language         : English
Default          : Yes
Forced       : No
Original source medium       : Blu-ray

Audio #2
ID           : 3
Format       : AC-3
Format/Info      : Audio Coding 3
Commercial name      : Dolby Digital
Codec ID         : A_AC3
Duration         : 2 h 4 min
Bit rate mode        : Constant
Bit rate         : 640 kb/s
Channel(s)       : 6 channels
Channel layout       : L R C LFE Ls Rs
Sampling rate        : 48.0 kHz
Frame rate       : 31.250 FPS (1536 SPF)
Compression mode     : Lossy
Stream size      : 571 MiB (1%)
Title        : DD 5.1
Language         : English
Service kind         : Complete Main
Default          : No
Forced       : No

Text #1
ID           : 4
Format       : UTF-8
Codec ID         : S_TEXT/UTF8
Codec ID/Info        : 垂死挣扎拼音:chuí sǐ zhēng zhá释义:垂将近。临死前的挣扎,妄想延长生命。比喻行将灭亡之时的孤注一掷。出处:冯德英《迎春花》第十七章不料,炸成重伤的蒋子金,垂死挣扎地用手里的小剜刀去刺好的腿。”示例:无UTF-8 Plain Text
Duration         : 1 h 58 min
Bit rate         : 48 b/s
Frame rate       : 0.194 FPS
Count of elements        : 1378
Stream size      : 42.3 KiB (0%)
Language         : English
Default          : Yes
Forced       : No

Text #2
ID           : 5
Format       : UTF-8
Codec ID         : S_TEXT/UTF8
Codec ID/Info        : UTF-8 Plain Text
Duration         : 2 h 3 min
Bit rate         : 55 b/s
Frame rate       : 0.224 FPS
Count of elements        : 1664
Stream size      : 50.7 KiB (0%)
Title        : SDH
Language         : English
Default          : No
Forced       : No

Text #3
ID           : 6
ID in the original source medium     : 4768 (0x12A0)
Format       : PGS
Muxing mode      : zlib
Codec ID         : S_HDMV/PGS
Codec ID/Info        : Picture based subtitle format used on BDs/HD-DVDs
Duration         : 2 h 3 min
Bit rate         : 31.6 kb/s
Frame rate       : 0.452 FPS
Count of elements        : 3364
Stream size      : 28.0 MiB (0%)
Language         : English
Default          : No
Forced       : No
Original source medium       : Blu-ray

Menu
00:00:00.000         : en:Chapter 01
00:14:20.375         : en:Chapter 02
00:25:18.833         : en:Chapter 03
00:35:05.875         : en:Chapter 04
00:46:04.791         : en:Chapter 05
00:56:42.833         : en:Chapter 06
01:04:46.416         : en:Chapter 07
01:12:32.666         : en:Chapter 08
01:21:33.125         : en:Chapter 09
01:30:40.083         : en:Chapter 10
01:40:00.791         : en:Chapter 11
01:49:57.541         : en:Chapter 12

    

SWEATY BALLZ presents

Rollerball.1975.2160p.BluRay.x265.10bit.SDR.DTS-HD.MA.5.1-SWTYBLZ

Converted from 10 bit HDR to 10 bit SDR using tripple mixed Hable-Reinhard-JJ per scene+frame analysis algorithm

Screenshots are 8bit SDR

悠悠MP4_MP4电影下载_疯狂轮滑 Rollerball.1975.2160p.BluRay.x265.10bit.SDR.DTS-HD.MA.5.1-SWTYBLZ 60.37 GB
悠悠MP4_MP4电影下载_疯狂轮滑 Rollerball.1975.2160p.BluRay.x265.10bit.SDR.DTS-HD.MA.5.1-SWTYBLZ 60.37 GB
悠悠MP4_MP4电影下载_疯狂轮滑 Rollerball.1975.2160p.BluRay.x265.10bit.SDR.DTS-HD.MA.5.1-SWTYBLZ 60.37 GB
悠悠MP4_MP4电影下载_疯狂轮滑 Rollerball.1975.2160p.BluRay.x265.10bit.SDR.DTS-HD.MA.5.1-SWTYBLZ 60.37 GB
悠悠MP4_MP4电影下载_疯狂轮滑 Rollerball.1975.2160p.BluRay.x265.10bit.SDR.DTS-HD.MA.5.1-SWTYBLZ 60.37 GB
悠悠MP4_MP4电影下载_疯狂轮滑 Rollerball.1975.2160p.BluRay.x265.10bit.SDR.DTS-HD.MA.5.1-SWTYBLZ 60.37 GB
悠悠MP4_MP4电影下载_疯狂轮滑 Rollerball.1975.2160p.BluRay.x265.10bit.SDR.DTS-HD.MA.5.1-SWTYBLZ 60.37 GB
悠悠MP4_MP4电影下载_疯狂轮滑 Rollerball.1975.2160p.BluRay.x265.10bit.SDR.DTS-HD.MA.5.1-SWTYBLZ 60.37 GB

磁力链接


    
    【公告】近期迅雷频繁屏蔽资源临时解决办法
    
    万里孤云,清游渐远,故人何处?寒窗梦里,犹记经行旧时路。连昌约略无多柳,第一是难听夜雨。漫惊回凄悄,相看烛影,拥衾无语。不堪盈手赠,还寝梦佳期。电影下载,MP4下载,高清电影,电影排行榜,电影票房Logical (Valid / Sound) as this argument and I wholeheartedly agree with it, it appears insignificant (absurd) when … is taken into consideration (account).

热门电影下载

最新电影下载

电影票房排行榜