电影下载

Holiday Harmony Holiday.Harmony.2022.2160p.HMAX.WEB-DL.DD5.1.DV.MKV.x265-SMURF 13.95 GB

Holiday Harmony Holiday.Harmony.2022.2160p.HMAX.WEB-DL.DD5.1.DV.MKV.x265-SMURF 13.95 GB

  • 版本:高清完整版
  • 发布:

电影介绍

    Holiday Harmony Holiday.Harmony.2022.2160p.HMAX.WEB-DL.DD5.1.DV.MKV.x265-SMURF 13.95 GB仰目不转秋风送爽睛不愧天15. 当缘分走到尽头时真的不必去询问谁对谁错?一旦分开意味着天涯各安,追问的结果只会让我们更惆怅。惟有把这份情谊停留在彼此相处的时光,不再打扰,便是最后的温柔。98. We should strictly follow traffic rules rather than complain about traffic jams.(2013.江苏)李绅227.春种一粒粟,秋收万颗子。《悯农》

    悠悠MP4_MP4电影下载_Holiday Harmony Holiday.Harmony.2022.2160p.HMAX.WEB-DL.DD5.1.DV.MKV.x265-SMURF 13.95 GB

◎片  名 Holiday Harmony
◎年  代 2022
◎产  地 美国
◎类  别 喜剧 / 爱情
◎语  言 英语
◎上映日期 2022-11-24(美国网络)
◎IMDb评分 
◎IMDb链接  https://www.imdb.com/title/tt22814692/
◎豆瓣评分 /10 from 0 users
◎豆瓣链接 https://movie.douban.com/subject/36142230/
◎片  长 
◎导  演 
◎编  剧 罗琳·约克 Lorynn York
◎主  演 安尼塞·塞佩罗 Annelise Cepero
       波姬·小丝 Brooke Shields
       卡拉·吉门内斯 Carla Jimenez
       罗琳·约克 Lorynn York
       杰瑞米·桑普特 Jeremy Sumpter

◎简  介

  The romantic drama Holiday Harmony from producers Ali Afshar, Lauren Swickard and Daniel Aspromonte, and directed by Shaun Paul Piccinino, follows singer-songwriter Gail, who lands an opportunity to compete for a once-in-a-lifetime shot at the big time, and heads cross country-only getting as far as Harmony Springs, Oklahoma when her ride, her budget and all her hopes are stalled. With just two weeks to get to the iHeartRadio Christmas Eve performance of her dreams, she takes the advice of local Jack-of-all-trades, Jeremy, and takes on a group of misfit kids hoping to perform in a Christmas Eve gala of their own. Gail and Jeremy grow close, but if she's going to fulfill her lifelong dream, she may have to leave him and the town she's grown to love behind.
    


    
Video
ID           : 1
Format       : HEVC
Format/Info      : High Efficiency Video Coding
Format profile       : Main [email protected]@Main
HDR format       : Dolby Vision, Version 1.0, dvhe.05.06, BL+RPU
Codec ID         : V_MPEGH/ISO/HEVC
Duration         : 1 h 50 min
Bit rate         : 17.8 Mb/s
Width        : 3 840 pixels
Height       : 2 160 pixels
Display aspect ratio     : 16:9
Frame rate mode      : Constant
Frame rate       : 23.976 (24000/1001) FPS
Color space      : YUV
Chroma subsampling       : 4:2:0
Bit depth        : 10 bits
Bits/(Pixel*Frame)       : 0.089
Stream size      : 13.7 GiB (98%)
Writing library      : x265 3.4hy:[Linux][GCC 7.5.0][64 bit] 10bit
Encoding settings        : cpuid=1111039 / frame-threads=6 / no-wpp / no-pmode / no-pme / no-psnr / no-ssim / log-level=2 / input-csp=1 / input-res=3840x2160 / interlace=0 / total-frames=0 / level-idc=0 / high-tier=1 / uhd-bd=0 / ref=4 / no-allow-non-conformance / repeat-headers / annexb / aud / hrd / info / hash=0 / no-temporal-layers / no-open-gop / min-keyint=96 / keyint=96 / gop-lookahead=0 / bframes=4 / b-adapt=2 / b-pyramid / bframe-bias=0 / rc-lookahead=25 / lookahead-slices=4 / scenecut=40 / hist-scenecut=0 / radl=0 / no-splice / no-intra-refresh / ctu=64 / min-cu-size=8 / rect / no-amp / max-tu-size=32 / tu-inter-depth=1 / tu-intra-depth=1 / limit-tu=0 / rdoq-level=2 / dynamic-rd=0.00 / no-ssim-rd / signhide / no-tskip / nr-intra=0 / nr-inter=0 / no-constrained-intra / strong-intra-smoothing / max-merge=3 / limit-refs=3 / limit-modes / me=3 / subme=3 / merange=57 / temporal-mvp / no-frame-dup / no-hme / weightp / no-weightb / no-analyze-src-pics / deblock=0:0 / sao / no-sao-non-deblock / rd=4 / selective-sao=4 / no-early-skip / rskip / no-fast-intra / no-tskip-fast / no-cu-lossless / no-b-intra / no-splitrd-skip / rdpenalty=0 / psy-rd=2.00 / psy-rdoq=1.00 / no-rd-refine / no-lossless / cbqpoffs=0 / crqpoffs=3 / rc=abr / bitrate=18000 / qcomp=0.60 / qpstep=4 / stats-write=0 / stats-read=2 / cplxblur=20.0 / qblur=0.5 / vbv-maxrate=24500 / vbv-bufsize=24500 / vbv-init=0.6 / vbv-end=0.6 / vbv-end-fr-adj=0.0 / ipratio=1.40 / pbratio=1.30 / aq-mode=2 / aq-strength=1.00 / cutree / zone-count=0 / no-strict-cbr / qg-size=32 / no-rc-grain / qpmax=69 / qpmin=0 / no-const-vbv / sar=1 / overscan=0 / videoformat=5 / range=1 / colorprim=2 / transfer=2 / colormatrix=2 / chromaloc=0 / display-window=0 / cll=0,0 / min-luma=0 / max-luma=1023 / log2-max-poc-lsb=8 / vui-timing-info / vui-hrd-info / no-concatenation / slices=1 / no-opt-qp-pps / no-opt-ref-list-length-pps / no-multi-pass-opt-rps / scenecut-bias=0.05 / hist-threshold=0.01 / no-opt-cu-delta-qp / no-aq-motion / no-hdr10 / no-hdr10-opt / no-dhdr10-opt / no-idr-recovery-sei / analysis-reuse-level=0 / analysis-save-reuse-level=0 / analysis-load-reuse-level=0 / scale-factor=0 / refine-intra=0 / refine-inter=0 / refine-mv=1 / refine-ctu-distortion=0 / no-limit-sao / ctu-info=0 / no-lowpass-dct / refine-analysis-type=0 / copy-pic=1 / max-ausize-factor=1.0 / no-dynamic-refine / no-single-sei / no-hevc-aq / no-svt / no-field / qp-adaptation-range=1.00 / no-scenecut-aware-qpconformance-window-offsets / right=0 / bottom=0 / decoder-max-rate=0
Language         : English
Default          : Yes
Forced       : No
Color range      : Full

Audio
ID           : 2
Format       : AC-3
Format/Info      : Audio Coding 3
Commercial name      : Dolby Digital
Codec ID         : A_AC3
Duration         : 1 h 50 min
Bit rate mode        : Constant
Bit rate         : 384 kb/s
Channel(s)       : 6 channels
Channel layout       : L R C LFE Ls Rs
Sampling rate        : 48.0 kHz
Frame rate       : 31.250 FPS (1536 SPF)
Compression mode     : Lossy
Stream size      : 302 MiB (2%)
Language         : English
Service kind         : Complete Main
Default          : Yes
Forced7. 真正的爱情是当我们老了,我还是会记得你当初让我心动的样子。       : No

Text #1
ID           : 3
Format       : UTF-8
Codec ID         : S_TEXT/UTF8
Codec ID/Info        : UTF-8 Plain Text
Duration         : 1 h 45 min
Bit rate         : 58 b/s
Frame rate       : 0.245 FPS
Count of elements        : 1556
Stream size      : 45.4 KiB (0%)
Language         : English
Default          : No
Forced       : No

Text #2
ID           : 4
Format       : UTF-8
Codec ID         : S_TEXT/UTF8
Codec ID/Info        : UTF-8 Plain Text
Duration         : 1 h 49 min
Bit rate         : 77 b/s
Frame rate       : 0.301 FPS
Count of elements        : 1984
Stream size      : 62.2 KiB (0%)
Title        : SDH
Language         : English
Default          : No
Forced       : No

Text #3
ID           : 5
Format       : UTF-8
Codec ID         : S_TEXT/UTF8
Codec ID/Info        : UTF-8 Plain Text
Duration         : 1 h 49 min
Bit rate         : 110 b/s
Frame rate       : 0.277 FPS
Count of elements        : 1818
Stream size      : 88.4 KiB (0%)
Language         : Bulgarian
Default          : No
Forced       : No

Text #4
ID           : 6
Format       : UTF-8
Codec ID         : S_TEXT/UTF8
Codec ID/Info        : UTF-8 Plain Text
Duration         : 1 h 49 min
Bit rate         : 64 b/s
Frame rate       : 0.276 FPS
Count of elements        : 1809
Stream size      : 51.6 KiB (0%)
Language         : Czech
Default          : No
Forced       : No

Text #5
ID           : 7
Format       : UTF-8
Codec ID         : S_TEXT/UTF8
Codec ID/Info        : UTF-8 Plain Text
Duration         : 1 h 49 min
Bit rate         : 60 b/s
Frame rate       : 0.271 FPS
Count of elements        : 1777
Stream size      : 48.4 KiB (0%)
Language         : Danish
Default          : No
Forced       : No

Text #6
ID           : 8
Format       : UTF-8
Codec ID         : S_TEXT/UTF8
Codec ID/Info        : UTF-8 Plain Text
Duration         : 1 h 49 min
Bit rate         : 69 b/s
Frame rate       : 0.276 FPS
Count of elements        : 1812
Stream size      : 56.0 KiB (0%)
Title        : Latin American
Language         : Spanish
Default          : No
Forced       : No

Text #7
ID           : 9
Format       : UTF-8
Codec ID         : S_TEXT/UTF8
Codec ID/Info        : UTF-8 Plain Text
Duration         : 1 h 46 min
Bit rate         : 73 b/s
Frame rate       : 0.311 FPS
Count of elements        : 1988
Stream size      : 57.4 KiB (0%)
Title        : Latin American (SDH)
Language         : Spanish
Default          : No
Forced       : No

Text #8
ID           : 10
Format       : UTF-8
Codec ID         : S_TEXT/UTF8
Codec ID/Info        : UTF-8 Plain Text
Duration         : 1 h 45 min
Bit rate         : 66 b/s
Frame rate       : 0.226 FPS
Count of elements        : 1433
Stream size      : 51.7 KiB (0%)
Language         : Spanish
Default          : No
Forced       : No

Text #9
ID           : 11
Format       : UTF-8
Codec ID         : S_TEXT/UTF8
Codec ID/Info        : UTF-8 Plain Text
Duration         : 1 h 49 min
Bit rate         : 56 b/s
Frame rate       : 0.272 FPS
Count of elements        : 1788
Stream size      : 45.6 KiB (0%)
Language         : Finnish
Default          : No
Forced       : No

Text #10
ID           : 12
Format       : UTF-8
Codec ID         : S_TEXT/UTF8
Codec ID/Info        : UTF-8 Plain Text
Duration         : 1 h 49 min
Bit rate         : 55 b/s
Frame rate       : 0.275 FPS
Count of elements        : 1804
Stream size      : 44.8 KiB (0%)
Language         : Croatian
Default          : No
Forced       : No

Text #11
ID           : 13
Format       : UTF-8
Codec ID         : S_TEXT/UTF8
Codec ID/Info        : UTF-8 Plain Text
Duration         : 1 h 49 min
Bit rate         : 60 b/s
Frame rate       : 0.275 FPS
Count of elements        : 1805
Stream size      : 48.3 KiB (0%)
Language         : Hungarian
Default          : No
Forced       : No

Text #12
ID           : 14
Format       : UTF-8
Codec ID         : S_TEXT/UTF8
Codec ID/Info        : UTF-8 Plain Text
Duration         : 1 h 49 min
Bit rate         : 113 b/s
Frame rate       : 0.276 FPS
Count of elements        : 1814
Stream size      : 90.8 KiB (0%)
Language         : Macedonian
Default          : No
Forced       : No

Text #13
ID           : 15
Format       : UTF-8
Codec ID         : S_TEXT/UTF8
Codec ID/Info        : UTF-8 Plain Text
Duration         : 1 h 48 min
Bit rate         : 62 b/s
Frame rate       : 0.248 FPS
Count of elements        : 1621
Stream size      : 49.7 KiB (0%)
Language         : Dutch
Default          : No
Forced       : No

Text #14
ID           : 16
Format       : UTF-8
Codec ID         : S_TEXT/UTF8
Codec ID/Info        : UTF-8 Plain Text
Duration         : 1 h 49 min
Bit rate         : 63 b/s
Frame rate       : 0.275 FPS
Count of elements        : 1808
Stream size      : 50.8 KiB (0%)
Language         : Norwegian
Default          : No
Forced       : No

Text #15
ID           : 17
Format       : UTF-8
Codec ID         : S_TEXT/UTF8
Codec ID/Info        : UTF-8 Plain Text
Duration         : 1 h 49 min
Bit rate         : 55 b/s
Frame rate       : 0.284 FPS
Count of elements        : 1862
Stream size      : 44.5 KiB (0%)
Language         : Polish
Default          : No
Forced       : No

Text #16
ID           : 18
Format       : UTF-8
Codec ID         : S_TEXT/UTF8
Codec ID/Info        : UTF-8 Plain Text
Duration         : 1 h 49 min
Bit rate         : 67 b/s
Frame rate       : 0.277 FPS
Count of elements        : 1815
Stream size      : 53.8 KiB (0%)
Title        : Brazilian
Language         : Portuguese
Default          : No
Forced       : No

Text #17
ID           : 19
Format       : UTF-8
Codec ID         : S_TEXT/UTF8
Codec ID/Info        : UTF-8 Plain Text
Duration         : 1 h 49 min
Bit rate         : 63 b/s
Frame rate       : 0.276 FPS
Count of elements        : 1812
Stream size      : 50.9 KiB (0%)
Language         : Portuguese
Default          : No
Forced       : No

Text #18
ID           : 20
Format       : UTF-8
Codec ID         : S_TEXT/UTF8
Codec ID/Info        : UTF-8 Plain Text
Duration         : 1 h 49 min
Bit rate         : 69 b/s
Frame rate       : 0.275 FPS
Count of elements        : 1805
Stream size      : 55.6 KiB (0%)
Language         : Romanian
Default          : No
Forced       : No

Text #19
ID           : 21
Format       : UTF-8
Codec ID         : S_TEXT/UTF8
Codec ID/Info        : UTF-8 Plain Text
Duration         : 1 h 49 min
Bit rate         : 63 b/s
Frame rate       : 0.274 FPS
Count of elements        : 1795
Stream size      : 51.0 KiB (0%)
Language         : Slovak
Default          : No
Forced       : No

Text #20
ID           : 22
Format       : UTF-8
Codec ID         : S_TEXT/UTF8
Codec ID/Info        : UTF-8 Plain Text
Duration         : 1 h 49 min
Bit rate         : 58 b/s
Frame rate       : 0.276 FPS
Count of elements        : 1814
Stream size      : 47.0 KiB (0%)
Language         : Slovenian
Default          : No
Forced       : No

Text #21
ID           : 23
Format       : UTF-8
Codec ID         : S_TEXT/UTF8
Codec ID/Info        : UTF-8 Plain Text
Duration         : 1 h 49 min
Bit rate         : 59 b/s
Frame rate       : 0.275 FPS
Count of elements        : 1803
Stream size      : 47.5 KiB (0%)
Title        : Latin,
Language         : Serbian
Default          : No
Forced       : No

Text #22
ID           : 24
Format       : UTF-8
Codec ID         : S_TEXT/UTF8
Codec ID/Info        : UTF-8 Plain Text
Duration         : 1 h 49 min
Bit rate         : 67 b/s
Frame rate       : 0.274 FPS
Count of elements        : 1800
Stream size      : 53.7 KiB (0%)
Language         : Swedish
Default          : No
Forced       : No

Menu
01:46:40.000         : en:Credits

    

There is a very limited amount of devices that can play dv muxed this way so keep that in mind before downloading.

Screenshots are tonemapped to 8bit SDR for compatibility

悠悠MP4_MP4电影下载_Holiday Harmony Holiday.Harmony.2022.2160p.HMAX.WEB-DL.DD5.1.DV.MKV.x265-SMURF 13.95 GB
悠悠MP4_MP4电影下载_Holiday Harmony Holiday.Harmony.2022.2160p.HMAX.WEB-DL.DD5.1.DV.MKV.x265-SMURF 13.95 GB
悠悠MP4_MP4电影下载_Holiday Harmony Holiday.Harmony.2022.2160p.HMAX.WEB-DL.DD5.1.DV.MKV.x265-SMURF 13.95 GB

磁力链接


    
    【公告】近期迅雷频繁屏蔽资源临时解决办法
    
    蝉将家就鱼麦,归老江湖边。电影下载,MP4下载,高清电影,电影排行榜,电影票房58、All rivers run into the sea.

热门电影下载

最新电影下载

电影票房排行榜