电影下载

谁偷了圣诞铃 A.Christmas.Mystery.2022.2160p.HMAX.WEB-DL.DD5.1.DV.MP4.x265-DVSUX 10.89 GB

谁偷了圣诞铃 A.Christmas.Mystery.2022.2160p.HMAX.WEB-DL.DD5.1.DV.MP4.x265-DVSUX 10.89 GB

  • 版本:高清完整版
  • 发布:

电影介绍

    谁偷了圣诞铃 A.Christmas.Mystery.2022.2160p.HMAX.WEB-DL.DD5.1.DV.MP4.x265-DVSUX 10.89 GB果仰不愧天实饱关怀备至满12. 当心空无一物,它便无边无涯。树在,山在,大地在,岁月在,我在,你还要怎样更好的世界。到目前为止,我对我们取得的成绩很是满意。340.知无不言,言无不尽。 宋?苏洵 《远虑》

    悠悠MP4_MP4电影下载_谁偷了圣诞铃 A.Christmas.Mystery.2022.2160p.HMAX.WEB-DL.DD5.1.DV.MP4.x265-DVSUX 10.89 GB

◎片  名 谁偷了圣诞铃 A Christmas Mystery / 小小小侦探
◎年  代 2022
◎产  地 美国
◎类  别 喜剧 / 悬疑
◎语  言 英语
◎上映日期 2022-11-24(美国网络)
◎IMDb评分 
◎IMDb链接  https://www.imdb.com/title/tt22207152/
◎豆瓣评分 /10 from 0 users
◎豆瓣链接 https://movie.douban.com/subject/36142222/
◎片  长 
◎导  演 亚历克斯·兰阿瑞佛罗 Alex Ranarivelo
◎编  剧 约翰·杜西 John Ducey
◎主  演 维奥莱特·麦格劳 Violet McGraw
       奥斯卡·努内斯 Oscar Nuñez
       博·布里奇斯 Beau Bridges
       艾迪·斯比安 Eddie Cibrian
       克里斯托夫·桑德斯 Christoph Sanders
       德鲁·鲍威尔 Drew Powell
       桑蒂诺·巴纳德 Santino Barnard
       莱昂纳多·捷克 Leonardo Cecchi

◎简  介

  When her best friend's dad is falsely accused of stealing the town's prized jingle bells, a young amateur sleuth and her friends must find the real thief before Christmas.
    


    
Video
ID           : 1
Format       : HEVC
Format/Info      : High Efficiency Video Coding
Format profile       : Main [email protected]@Main
HDR format       : Dolby Vision, Version 1.0, dvhe.05.06, BL+RPU
Codec ID         : dvhe
Codec ID/Info        : High Efficiency Video Coding with Dolby Vision
Duration         : 1 h 27 min
Bit rate         : 17.5 Mb/s
Width        : 3 840 pixels
Height       : 2 160 pixels
Display aspect ratio     : 16:9
Frame rate mode      : Constant
Frame rate       : 23.976 (24000/1001) FPS
Color space      : YUV
Chroma subsampling       : 4:2:0
Bit depth        : 10 bits
Bits/(Pixel*Frame)       : 0.088
Stream size      : 10.6 GiB (98%)
Writing library      : x265 3.4hy:[Linux][GCC 7.5.0][64 bit] 10bit
Encoding settings        : cpuid=1111039 / frame-threads=6 / no-wpp / no-pmode / no-pme / no-psnr / no-ssim / log-level=2 / input-csp=1 / input-res=3840x2160 / interlace=0 / total-frames=0 / level-idc=0 / high-tier=1 / uhd-bd=0 / ref=4 / no-allow-non-conformance / repeat-headers / annexb / aud / hrd / info / hash=0 / no-temporal-layers / no-open-gop / min-keyint=96 / keyint=96 / gop-lookahead=0 / bframes=4 / b-adapt=2 / b-pyramid / bframe-bias=0 / rc-lookahead=25 / lookahead-slices=4 / scenecut=40 / hist-scenecut=0 / radl=0 / no-splice / no-intra-refresh / ctu=64 / min-cu-size=8 / rect / no-amp / max-tu-size=32 / tu-inter-depth=1 / tu-intra-depth=1 / limit-tu=0 / rdoq-level=2 / dynamic-rd=0.00 / no-ssim-rd / signhide / no-tskip / nr-intra=0 / nr-inter=0 / no-constrained-intra / strong-intra-smoothing / max-merge=3 / limit-refs=3 / limit-modes / me=3 / subme=3 / merange=57 / temporal-mvp / no-frame-dup / no-hme / weightp / no-weightb / no-analyze-src-pics / deblock=0:0 / sao / no-sao-non-deblock / rd=4 / selective-sao=4 / no-early-skip / rskip / no-fast-intra / no-tskip-fast / no-cu-lossless / no-b-intra / no-splitrd-skip / rdpenalty=0 / psy-rd=2.00 / psy-rdoq=1.00 / no-rd-refine / no-lossless / cbqpoffs=0 / crqpoffs=3 / rc=abr / bitrate=18000 / qcomp=0.60 / qpstep=4 / stats-write=0 / stats-read=2 / cplxblur=20.0 / qblur=0.5 / vbv-maxrate=24500 / vbv-bufsize=24500 / vbv-init=0.6 / vbv-end=0.6 / vbv-end-fr-adj=0.0 / ipratio=1.40 / pbratio=1.30 / aq-mode=2 / aq-strength=1.00 / cutree / zone-count=0 / no-strict-cbr / qg-size=32 / no-rc-grain / qpmax=69 / qpmin=0 / no-const-vbv / sar=1 / overscan=0 / videoformat=5 / range=1 / colorprim=2 / transfer=2 / colormatrix=2 / chromaloc=0 / display-window=0 / cll=0,0 / min-luma=0 / max-luma=1023 / log2-max-poc-lsb=8 / vui-timing-info / vui-hrd-info / no-concatenation / slices=1 / no-opt-qp-pps / no-opt-ref-list-length-pps / no-multi-pass-opt-rps / scenecut-bias=0.05 / hist-threshold=0.01 / no-opt-cu-delta-qp / no-aq-motion / no-hdr10 / no-hdr10-opt / no-dhdr10-opt / no-idr-recovery-sei / analysis-reuse-level=0 / analysis-save-reuse-level=0 / analysis-load-reuse-level=0 / scale-factor=0 / refine-intra=0 / refine-inter=0 / refine-mv=1 / refine-ctu-distortion=0 / no-limit-sao / ctu-info=0 / no-lowpass-dct / refine-analysis-type=0 / copy-pic=1 / max-ausize-factor=1.0 / no-dynamic-refine / no-single-sei / no-hevc-aq / no-svt / no-field / qp-adaptation-range=1.00 / no-scenecut-aware-qpconformance-window-offsets / right=0 / bottom=0 / decoder-max-rate=0
Default          : Yes
Alternate group      : 1
Encoded date         : UTC 2022-11-24 09:08:57
Tagged date      : UTC 2022-11-24 09:10:12
Color range      : Full
Codec configuration box      : hvcC+dvcC

Audio
ID           : 2
Format       : AC-3
Format/Info      : Audio Coding 3
Commercial name      : Dolby Digital
Codec ID         : ac-3
Duration         : 1 h 27 min
Bit rate mode        : Constant
Bit rate         : 384 kb/s
Maximum bit rate     : 406 kb/s
Channel(s)       : 6 channels
Channel layout       : L R C LFE Ls Rs
Sampling rate        : 48.0 kHz
Frame rate       : 31.250 FPS (1536 SPF)
Compression mode     : Lossy
Stream size      : 239 MiB (2%)
Title        : English
Language         : English
Service kind         : Complete Main
Default          : Yes
Alternate group      : 1
Tagged date      : UTC 2022-11-24 09:10:12

Text #1
ID           : 3
Format       : Timed Text
Codec ID         : tx3g
Duration         : 1 h 23 min
Bit rate mode        : Variable
Bit rate         : 79 b/s
Frame rate       : 0.543 FPS
Stream size      : 48.2 KiB (0%)
Title        : English
Language         : English
Forced       : No
Encoded date         : UTC 2022-11-24 09:10:11
Tagged date      : UTC 2022-11-24 09:10:12

Text #2
ID           : 4
Format       : Timed Text
Codec ID         : tx3g
Duration         : 1 h 23 min
Bit rate mode        : Variable
Bit rate         : 87 b/s
Frame rate       : 0.596 FPS
Stream size      : 53.0 KiB (0%)
Title        : English
Language         : English
Forced       : No
Encoded date         : UTC 2022-11-24 09:10:11
Tagged date      : UTC 2022-11-24 09:10:12

Text #3
ID           : 5
Format       : Timed Text
Codec ID         : tx3g
Duration         : 1 h 26 min
Bit rate mode        : Variable
Bit rate         : 117 b/s
Frame rate       : 0.522 FPS
Stream size      : 74.8 KiB (0%)
Title        : Bulgarian
Language         : Bulgarian
Forced       : No
Encoded date         : UTC 2022-11-24 09:10:11
Tagged date      : UTC 2022-11-24 09:10:12

Text #4
ID           : 6
Format       : Timed Text
Codec ID         : tx3g
Duration         : 1 h 26 min
Bit rate mode        : Variable
Bit rate         : 70 b/s
Frame rate       : 0.520 FPS
Stream size      : 44.4 KiB (0%)
Title        : Croatian
Language         : Croatian
Forced       : No
Encoded date         : UTC 2022-11-24 09:10:11
Tagged date      : UTC 2022-11-24 09:10:12

Text #5
ID           : 7
Format       : Timed Text
Codec ID         : tx3g
Duration         : 1 h 26 min
Bit rate mode        : Variable
Bit rate         : 70 b/s
Frame rate       : 0.522 FPS
Stream size      : 44.5 KiB (0%)
Title        : Czech
Language         : Czech
Forced       : No
Encoded date         : UTC 2022-11-24 09:10:11
Tagged date      : UTC 2022-11-24 09:10:12

Text #6
ID           : 8
Format       : Timed Text
Codec ID         : tx3g
Duration         : 1 h 26 min
Bit rate mode        : Variable
Bit rate         : 73 b/s
Frame rate       : 0.516 FPS
Stream size      : 46.3 KiB (0%)
Title        : Danish
Language         : Danish
Forced       : No
Encoded date         : UTC 2022-11-24 09:10:11
Tagged date      : UTC 2022-11-24 09:10:12

Text #7
ID           : 9
Format       : Timed Text
Codec ID         : tx3g
Duration         : 1 h 26 min
Bit rate mode        : Variable
Bit rate         : 74 b/s
Frame rate       : 0.499 FPS
Stream size      : 47.0 KiB (0%)
Title        : Dutch
Language         : Dutch
Forced       : No
Encoded date         : UTC 2022-11-24 09:10:11
Tagged date      : UTC 2022-11-24 09:10:12

Text #8
ID           : 10
Format       : Timed Text
Codec ID         : tx3g
Duration         : 1 h 26 min
Bit rate mode        : Variable
Bit rate         : 73 b/s
Frame rate       : 0.520 FPS
Stream size      : 46.3 KiB (0%)
Title        : Finnish
Language         : Finnish
Forced       : No
Encoded date         : UTC 2022-11-24 09:10:11
Tagged date      : UTC 2022-11-24 09:10:12

Text #9
ID           : 11
Format       : Timed Text
Codec ID         : tx3g
Duration         : 1 h 26 min
Bit rate mode        : Variable
Bit rate         : 76 b/s
Frame rate       : 0.519 FPS
Stream size      : 48.1 KiB (0%)
Title        : Hungarian
Language         : Hungarian
Forced       : No
Encoded date         : UTC 2022-11-24 09:10:11
Tagged date      : UTC 2022-11-24 09:10:12

Text #10
ID           : 12
Format       : Timed Text
Codec ID         : tx3g
Duration         : 1 h 26 min
Bit rate mode        : Variable
Bit rate         : 121 b/s
Frame rate       : 0.522 FPS
Stream size      : 77.4 KiB (0%)
Title        : Macedonian
Language         : Macedonian
Forced       : No
Encoded date         : UTC 2022-11-24 09:10:11
Tagged date      : UTC 2022-11-24 09:10:12

Text #11
ID           : 13
Format       : Timed Text
Codec I碧鬟红袖拼音:bì huán hóng xiù释义:指代年轻貌美的女子。出处:无示例:无D         : tx3g
Duration         : 1 h 26 min
Bit rate mode        : Variable
Bit rate         : 70 b/s
Frame rate       : 0.521 FPS
Stream size      : 44.5 KiB (0%)
Title        : Norwegian
Language         : Norwegian
Forced       : No
Encoded date         : UTC 2022-11-24 09:10:11
Tagged date      : UTC 2022-11-24 09:10:12

Text #12
ID           : 14
Format       : Timed Text
Codec ID         : tx3g
Duration         : 1 h 26 min
Bit rate mode        : Variable
Bit rate         : 70 b/s
Frame rate       : 0.518 FPS
Stream size      : 44.6 KiB (0%)
Title        : Polish
Language         : Polish
Forced       : No
Encoded date         : UTC 2022-11-24 09:10:11
Tagged date      : UTC 2022-11-24 09:10:12

Text #13
ID           : 15
Format       : Timed Text
Codec ID         : tx3g
Duration         : 1 h 26 min
Bit rate mode        : Variable
Bit rate         : 78 b/s
Frame rate       : 0.520 FPS
Stream size      : 49.5 KiB (0%)
Title        : Portuguese
Language         : Portuguese
Forced       : No
Encoded date         : UTC 2022-11-24 09:10:11
Tagged date      : UTC 2022-11-24 09:10:12

Text #14
ID           : 16
Format       : Timed Text
Codec ID         : tx3g
Duration         : 1 h 26 min
Bit rate mode        : Variable
Bit rate         : 73 b/s
Frame rate       : 0.522 FPS
Stream size      : 46.3 KiB (0%)
Title        : Portuguese-BR
Language         : Portuguese
Forced       : No
Encoded date         : UTC 2022-11-24 09:10:12
Tagged date      : UTC 2022-11-24 09:10:12

Text #15
ID           : 17
Format       : Timed Text
Codec ID         : tx3g
Duration         : 1 h 26 min
Bit rate mode        : Variable
Bit rate         : 72 b/s
Frame rate       : 0.520 FPS
Stream size      : 45.6 KiB (0%)
Title        : Romanian
Language         : Romanian
Forced       : No
Encoded date         : UTC 2022-11-24 09:10:12
Tagged date      : UTC 2022-11-24 09:10:12

Text #16
ID           : 18
Format       : Timed Text
Codec ID         : tx3g
Duration         : 1 h 25 min
Bit rate mode        : Variable
Bit rate         : 70 b/s
Frame rate       : 0.527 FPS
Stream size      : 44.1 KiB (0%)
Title        : Serbian
Language         : Serbian
Forced       : No
Encoded date         : UTC 2022-11-24 09:10:12
Tagged date      : UTC 2022-11-24 09:10:12

Text #17
ID           : 19
Format       : Timed Text
Codec ID         : tx3g
Duration         : 1 h 26 min
Bit rate mode        : Variable
Bit rate         : 69 b/s
Frame rate       : 0.521 FPS
Stream size      : 43.8 KiB (0%)
Title        : Slovak
Language         : Slovak
Forced       : No
Encoded date         : UTC 2022-11-24 09:10:12
Tagged date      : UTC 2022-11-24 09:10:12

Text #18
ID           : 20
Format       : Timed Text
Codec ID         : tx3g
Duration         : 1 h 26 min
Bit rate mode        : Variable
Bit rate         : 65 b/s
Frame rate       : 0.521 FPS
Stream size      : 41.6 KiB (0%)
Title        : Slovenian
Language         : Slovenian
Forced       : No
Encoded date         : UTC 2022-11-24 09:10:12
Tagged date      : UTC 2022-11-24 09:10:12

Text #19
ID           : 21
Format       : Timed Text
Codec ID         : tx3g
Duration         : 1 h 23 min
Bit rate mode        : Variable
Bit rate         : 86 b/s
Frame rate       : 0.666 FPS
Stream size      : 53.0 KiB (0%)
Title        : Spanish
Language         : Spanish
Forced       : No
Encoded date         : UTC 2022-11-24 09:10:12
Tagged date      : UTC 2022-11-24 09:10:12

Text #20
ID           : 22
Format       : Timed Text
Codec ID         : tx3g
Duration         : 1 h 26 min
Bit rate mode        : Variable
Bit rate         : 77 b/s
Frame rate       : 0.521 FPS
Stream size      : 49.0 KiB (0%)
Title        : Spanish
Language         : Spanish
Forced       : No
Encoded date         : UTC 2022-11-24 09:10:12
Tagged date      : UTC 2022-11-24 09:10:12

Text #21
ID           : 23
Format       : Timed Text
Codec ID         : tx3g
Duration         : 1 h 23 min
Bit rate mode        : Variable
Bit rate         : 79 b/s
Frame rate       : 0.460 FPS
Stream size      : 48.5 KiB (0%)
Title        : Spanish-EU
Language         : Spanish
Forced       : No
Encoded date         : UTC 2022-11-24 09:10:12
Tagged date      : UTC 2022-11-24 09:10:12

Text #22
ID           : 24
Format       : Timed Text
Codec ID         : tx3g
Duration         : 1 h 26 min
Bit rate mode        : Variable
Bit rate         : 75 b/s
Frame rate       : 0.522 FPS
Stream size      : 48.0 KiB (0%)
Title        : Swedish
Language         : Swedish
Forced       : No
Encoded date         : UTC 2022-11-24 09:10:12
Tagged date      : UTC 2022-11-24 09:10:12

    

There is a very limited amount of devices that can play dv muxed this way so keep that in mind before downloading.

Screenshots are tonemapped to 8bit SDR for compatibility

悠悠MP4_MP4电影下载_谁偷了圣诞铃 A.Christmas.Mystery.2022.2160p.HMAX.WEB-DL.DD5.1.DV.MP4.x265-DVSUX 10.89 GB
悠悠MP4_MP4电影下载_谁偷了圣诞铃 A.Christmas.Mystery.2022.2160p.HMAX.WEB-DL.DD5.1.DV.MP4.x265-DVSUX 10.89 GB
悠悠MP4_MP4电影下载_谁偷了圣诞铃 A.Christmas.Mystery.2022.2160p.HMAX.WEB-DL.DD5.1.DV.MP4.x265-DVSUX 10.89 GB

磁力链接


    
    【公告】近期迅雷频繁屏蔽资源临时解决办法
    
    东风夜放花千树,更吹落,星如雨。宝马雕车香满路,凤箫声动,玉壶光转,一夜鱼龙舞。今看两楹奠,当与梦时同。电影下载,MP4下载,高清电影,电影排行榜,电影票房A monopoly occurs when one company alone offers a particular food or service and therefore controls the market and price for it.

热门电影下载

最新电影下载

电影票房排行榜