电影下载

狼之一族 The.Company.of.Wolves.1984.2160p.BluRay.x264.8bit.SDR.DTS-HD.MA.2.0-SWTYBLZ 57.49 GB

狼之一族 The.Company.of.Wolves.1984.2160p.BluRay.x264.8bit.SDR.DTS-HD.MA.2.0-SWTYBLZ 57.49 GB

  • 版本:高清完整版
  • 发布:

电影介绍

    狼之一族 The.Company.of.Wolves.1984.2160p.BluRay.x264.8bit.SDR.DTS-HD.MA.2.0-SWTYBLZ 57.49 GB面百战百胜黄肌万紫千红瘦33. 喜欢看盛夏里的草长莺飞,小草在炽热的阳光爱抚下,将生命里所有的美丽一起释放,无边无际的绿色原野,把各色怒放的花朵衬托得鲜艳欲滴,蓝天在视野里也变低了,似乎弯了腰屈尊来与小草亲近。8.不可否认 It is undeniable that…/ There is no denying that…251.花开堪折直须折,莫待无花空折枝。杜秋娘《金缕衣》

    悠悠MP4_MP4电影下载_狼之一族 The.Company.of.Wolves.1984.2160p.BluRay.x264.8bit.SDR.DTS-HD.MA.2.0-SWTYBLZ 57.49 GB

◎片  名 狼之一族 The Company of Wolves / 与狼为伴
◎年  代 1984
◎产  地 英国
◎类  别 恐怖 / 奇幻
◎语  言 英语
◎上映日期 1984-09-21(英国)
◎IMDb评分  6.6/10 from 16876 users
◎IMDb链接  https://www.imdb.com/title/tt0087075/
◎豆瓣评分 7.2/10 from 467 users
◎豆瓣链接 https://movie.douban.com/subject/1307056/
◎片  长 95分钟
◎导  演 尼尔·乔丹 Neil Jordan
◎编  剧 安吉拉·卡特 Angela Carter
       尼尔·乔丹 Neil Jordan
◎主  演 安吉拉·兰斯伯瑞 Angela Lansbury
       大卫·沃纳 David Warner
       格拉汉姆·克罗登 Graham Crowden
       布莱恩·格洛弗 Brian Glover
       凯瑟琳·波格森 Kathryn Pogson
       斯蒂芬·瑞 Stephen Rea
       萨拉·帕特森 Sarah Patterson
       特伦斯·斯坦普 Terence Stamp
       Jimmy Gardner Jimmy Gardner
       理查德·莫兰特 Richard Morant
       Danielle Dax Danielle Dax
       Jim Brown Jim Brown
       吉姆·卡特 Jim Carter

◎简  介

  鬼才导演尼尔·乔丹的另类版的小红帽与狼的故事,如果跟踪小红帽的不是狼而是人狼,如果小红帽不是单纯的小姑娘而是一只狼。如果一只狼在梦中变成了人,而一个人在熟睡的时候身边突然出现一大堆狼。如果小红帽吻了那只狼,那么会怎么样?
    


    
Video
ID           : 1
Format       : AVC
Format/Info      : Advanced Video Codec
Format profile       : [email protected]
Format settings      : CABAC / 5 Ref Frames
Format settings, CABAC       : Yes
Format settings, Reference frames    : 5 frames
Codec ID         : V_MPEG4/ISO/AVC
Duration         : 1 h 35 min
Bit rate         : 83.3 Mb/s
Width        : 3 840 pixels
Height       : 2 076 pixels
Display aspect ratio     : 1.85:1
Frame rate mode      : Constant
Frame rate       : 24.000 FPS
Color space      : YUV
Chroma subsampling       : 4:2:0
Bit depth        : 8 bits
Scan type        : Progressive
Bits/(Pixel*Frame)       : 0.435
Stream size      : 55.3 GiB (97%)
Writing library      : x264 core 157 r2935 545de2f
Encoding settings        : cabac=1 / ref=5 / deblock=1:-1:-1 / analyse=0x3:0x113 / me=umh / subme=10 / psy=1 / psy_rd=1.00:0.15 / mixed_ref=1 / me_range=48 / chroma_me=1 / trellis=2 / 8x8dct=1 / cqm=0 / deadzone=21,11 / fast_pskip=1 / chroma_qp_offset=-3 / threads=48 / lookahead_threads=4 / sliced_threads=0 / nr=0 / decimate=0 / interlaced=0 / bluray_compat=0 / constrained_intra=0 / bframes=3 / b_pyramid=2 / b_adapt=2 / b_bias=0 / direct=3 / weightb=1 / open_gop=0 / weightp=2 / 寸草不留拼音:cùn cǎo bù liú释义:连小草也不留下。比喻搞得精光,一无所剩。出处:宋·楼钥《攻媿集·八十一·英老真赞》大地一变,直教寸草不留。”示例:若是恼了我,连你西歧~。★明·许仲琳《封神演义》第五十九回keyint=250 / keyint_min=24 / scenecut=40 / intra_refresh=0 / rc_lookahead=50 / rc=crf / mbtree=1 / crf=22.0 / qcomp=0.60 / qpmin=0 / qpmax=69 / qpstep=4 / ip_ratio=1.40 / aq=1:1.00
Default          : Yes
Forced       : No

Audio #1
ID           : 2
ID in the original source medium     : 4352 (0x1100)
Format       : DTS XLL
Format/Info      : Digital Theater Systems
Commercial name      : DTS-HD Master Audio
Codec ID         : A_DTS
Duration         : 1 h 35 min
Bit rate mode        : Variable
Bit rate         : 1 994 kb/s
Channel(s)       : 2 channels
Channel layout       : L R
Sampling rate        : 48.0 kHz
Frame rate       : 93.750 FPS (512 SPF)
Bit depth        : 24 bits
Compression mode     : Lossless
Stream size      : 1.32 GiB (2%)
Title        : DTS-HD MA 2.0
Language         : English
Default          : Yes
Forced       : No
Original source medium       : Blu-ray

Audio #2
ID           : 3
Format       : AC-3
Format/Info      : Audio Coding 3
Commercial name      : Dolby Digital
Codec ID         : A_AC3
Duration         : 1 h 35 min
Bit rate mode        : Constant
Bit rate         : 640 kb/s
Channel(s)       : 2 channels
Channel layout       : L R
Sampling rate        : 48.0 kHz
Frame rate       : 31.250 FPS (1536 SPF)
Compression mode     : Lossy
Stream size      : 435 MiB (1%)
Title        : DD 2.0
Language         : English
Service kind         : Complete Main
Default          : No
Forced       : No

Text #1
ID           : 4
Format       : UTF-8
Codec ID         : S_TEXT/UTF8
Codec ID/Info        : UTF-8 Plain Text
Duration         : 1 h 30 min
Bit rate         : 29 b/s
Frame rate       : 0.115 FPS
Count of elements        : 626
Stream size      : 19.6 KiB (0%)
Language         : English
Default          : Yes
Forced       : No

Text #2
ID           : 5
Format       : UTF-8
Codec ID         : S_TEXT/UTF8
Codec ID/Info        : UTF-8 Plain Text
Duration         : 1 h 33 min
Bit rate         : 36 b/s
Frame rate       : 0.150 FPS
Count of elements        : 843
Stream size      : 25.0 KiB (0%)
Title        : SDH
Language         : English
Default          : No
Forced       : No

Text #3
ID           : 6
ID in the original source medium     : 4768 (0x12A0)
Format       : PGS
Muxing mode      : zlib
Codec ID         : S_HDMV/PGS
Codec ID/Info        : Picture based subtitle format used on BDs/HD-DVDs
Duration         : 1 h 33 min
Bit rate         : 20.5 kb/s
Frame rate       : 0.301 FPS
Count of elements        : 1696
Stream size      : 13.8 MiB (0%)
Language         : English
Default          : No
Forced       : No
Original source medium       : Blu-ray

Menu
00:00:00.000         : en:Chapter 01
00:09:09.500         : en:Chapter 02
00:15:48.208         : en:Chapter 03
00:22:58.000         : en:Chapter 04
00:28:37.500         : en:Chapter 05
00:38:06.875         : en:Chapter 06
00:45:03.458         : en:Chapter 07
00:54:59.666         : en:Chapter 08
01:04:26.958         : en:Chapter 09
01:13:24.833         : en:Chapter 10
01:23:03.666         : en:Chapter 11
01:31:02.500         : en:Chapter 12

    

SWEATY BALLZ presents

The.Company.of.Wolves.1984.2160p.BluRay.x264.8bit.SDR.DTS-HD.MA.2.0-SWTYBLZ

Converted from 10 bit HDR to 8 bit SDR using tripple mixed Hable-Reinhard-JJ per scene+frame analysis algorithm

悠悠MP4_MP4电影下载_狼之一族 The.Company.of.Wolves.1984.2160p.BluRay.x264.8bit.SDR.DTS-HD.MA.2.0-SWTYBLZ 57.49 GB
悠悠MP4_MP4电影下载_狼之一族 The.Company.of.Wolves.1984.2160p.BluRay.x264.8bit.SDR.DTS-HD.MA.2.0-SWTYBLZ 57.49 GB
悠悠MP4_MP4电影下载_狼之一族 The.Company.of.Wolves.1984.2160p.BluRay.x264.8bit.SDR.DTS-HD.MA.2.0-SWTYBLZ 57.49 GB
悠悠MP4_MP4电影下载_狼之一族 The.Company.of.Wolves.1984.2160p.BluRay.x264.8bit.SDR.DTS-HD.MA.2.0-SWTYBLZ 57.49 GB
悠悠MP4_MP4电影下载_狼之一族 The.Company.of.Wolves.1984.2160p.BluRay.x264.8bit.SDR.DTS-HD.MA.2.0-SWTYBLZ 57.49 GB
悠悠MP4_MP4电影下载_狼之一族 The.Company.of.Wolves.1984.2160p.BluRay.x264.8bit.SDR.DTS-HD.MA.2.0-SWTYBLZ 57.49 GB
悠悠MP4_MP4电影下载_狼之一族 The.Company.of.Wolves.1984.2160p.BluRay.x264.8bit.SDR.DTS-HD.MA.2.0-SWTYBLZ 57.49 GB
悠悠MP4_MP4电影下载_狼之一族 The.Company.of.Wolves.1984.2160p.BluRay.x264.8bit.SDR.DTS-HD.MA.2.0-SWTYBLZ 57.49 GB

磁力链接


    
    【公告】近期迅雷频繁屏蔽资源临时解决办法
    
    凭谁为歌长恨?暗殿锁、秋灯夜语。叙旧期、不负春盟,红朝翠暮。怅望千秋一洒泪,萧条异代不同时。电影下载,MP4下载,高清电影,电影排行榜,电影票房An entrepreneur is someone like Tom Monaghan, the man who after brushes with bankruptcy turned Domino’s Pizza into the nation’s fastest - growing franchise chain.

热门电影下载

最新电影下载

电影票房排行榜