电影下载

黑潮 Malcolm.X.1992.2160p.UHD.BluRay.x265.10bit.HDR.DTS-HD.MA.5.1-B0MBARDiERS 51.27 GB

黑潮 Malcolm.X.1992.2160p.UHD.BluRay.x265.10bit.HDR.DTS-HD.MA.5.1-B0MBARDiERS 51.27 GB

  • 版本:高清完整版
  • 发布:

电影介绍

    黑潮 Malcolm.X.1992.2160p.UHD.BluRay.x265.10bit.HDR.DTS-HD.MA.5.1-B0MBARDiERS 51.27 GB学而不百花齐放永垂不朽倦1. 在人生征途中有许多弯路小路险路暗路,只有意志坚定且永不停步的人,才有希望到达胜利的远方。我确定它能给你留下深刻印象。244.嫦娥应悔偷灵药,碧海青天夜夜心。《嫦娥》

    悠悠MP4_MP4电影下载_黑潮 Malcolm.X.1992.2160p.UHD.BluRay.x265.10bit.HDR.DTS-HD.MA.5.1-B0MBARDiERS 51.27 GB

◎片  名 黑潮 Malcolm X / 马尔科姆 X / 马尔科姆·艾克斯
◎年  代 1992
◎产  地 美国 / 日本
◎类  别 剧情 / 传记 / 历史
◎语  言 英语
◎上映日期 1992-11-18(美国)
◎IMDb评分  7.7/10 from 95365 users
◎IMDb链接  https://www.imdb.com/title/tt0104797/
◎豆瓣评分 8.1/10 from 3828 users
◎豆瓣链接 https://movie.douban.com/subject/1292681/
◎片  长 202 分钟
◎导  演 斯派克·李 Spike Lee
◎编  剧 阿诺德·珀尔 Arnold Perl
       斯派克·李 Spike Lee
◎主  演 丹泽尔·华盛顿 Denzel Washington
       安吉拉·贝塞特 Angela Bassett
       阿尔伯特·海尔 Albert Hall
       小阿尔·弗里曼 Al Freeman Jr.
       斯派克·李 Spike Lee
       纳尔逊·曼德拉 Nelson Mandela
       吉安卡罗·埃斯波西托 Giancarlo Esposito
       德尔罗伊·林多 Delroy Lindo
       史蒂夫·怀特 Steve White
       约翰·大卫·华盛顿 John David Washington
       克里斯托弗·普卢默 Christopher Plummer
       马丁·唐文 Martin Donovan
       George T. Odom George T. Odom
       迈克尔·库伦 Michael Cullen
       Zakee Howze Zakee Howze
       Fracaswell Hyman Fracaswell Hyman
       艾丽斯·里特尔·托马斯 Iris Little Thomas
       Peewee Love Peewee Love
       Norma Miller Norma Miller
       户田惠子 Keiko Toda

◎简  介

  迈尔肯(丹泽尔•华盛顿 Denzel Washington 饰)出生于一个黑白通婚的家庭,其父是黑人牧师,其母是无偏见的白人。但是当时,美国种族矛盾激化,3K党经常骚扰他家,在他的幼小心灵中种下了复仇的种子。迈尔肯长大后,混迹于街巷酒吧之中,甚至染上了毒品、偷盗等恶习。一次偶然的机会,迈尔肯与白人女子索菲亚相遇,但这段爱情因种族偏见而夭折。迈尔肯因犯罪锒铛入狱,正当他处于困境之时,一位黑人教徒引领他皈依了伊斯兰教,这也成为他人生的转捩点。他通过阅读大量书籍,逐渐了解了种族歧视的文化根源,并多次在公开场合宣扬黑人要独立、对白人复仇的激进主张,引起轩然大波。迈尔肯成为很多人的眼中钉,甚至遭遇了背叛,引来了灭顶之灾……

◎获奖情况

  第65届奥斯卡金像奖 (1993)
  最佳男主角(提名)
  丹泽尔·华盛顿最佳服装设计(提名)
  露丝·E·卡特

  第43届柏林国际电影节 (1993)
  金熊奖 最佳影片(提名)
  斯派克·李银熊奖 最佳男演员
  丹泽尔·华盛顿

  第50届金球奖 (1993)
  电影类 剧情片最佳男主角(提名)
  丹泽尔·华盛顿
    


    
Video
ID           : 1
Format       : 6. 我长大了要当一个宇航员,飞去宇宙里面看看是不是还有一个地球。HEVC
Format/Info      : High Efficiency Video Coding
Format profile       : Main [email protected]@High
HDR format       : Dolby Vision, Version 1.0, dvhe.08.06, BL+RPU, HDR10 compatible / SMPTE ST 2086, HDR10 compatible
Codec ID         : V_MPEGH/ISO/HEVC
Duration         : 3 h 21 min
Bit rate         : 31.9 Mb/s
Width        : 3 840 pixels
Height       : 2 076 pixels
Display aspect ratio     : 1.85:1
Frame rate mode      : Constant
Frame rate       : 23.976 (24000/1001) FPS
Color space      : YUV
Chroma subsampling       : 4:2:0 (Type 2)
Bit depth        : 10 bits
Bits/(Pixel*Frame)       : 0.167
Stream size      : 44.9 GiB (88%)
Writing library      : x265 3.5+67-49ab9e83b:[Windows][GCC 12.2.0][64 bit] 10bit
Encoding settings        : cpuid=1176575 / frame-threads=6 / numa-pools=36 / wpp / no-pmode / no-pme / no-psnr / no-ssim / log-level=2 / input-csp=1 / input-res=3840x2076 / interlace=0 / total-frames=290424 / level-idc=51 / high-tier=1 / uhd-bd=0 / ref=4 / no-allow-non-conformance / repeat-headers / annexb / aud / no-eob / no-eos / hrd / info / hash=0 / no-temporal-layers / open-gop / min-keyint=23 / keyint=250 / gop-lookahead=0 / bframes=4 / b-adapt=2 / b-pyramid / bframe-bias=0 / rc-lookahead=25 / lookahead-slices=4 / scenecut=40 / no-hist-scenecut / radl=0 / no-splice / no-intra-refresh / ctu=64 / min-cu-size=8 / rect / no-amp / max-tu-size=32 / tu-inter-depth=1 / tu-intra-depth=1 / limit-tu=0 / rdoq-level=2 / dynamic-rd=0.00 / no-ssim-rd / signhide / no-tskip / nr-intra=0 / nr-inter=0 / no-constrained-intra / strong-intra-smoothing / max-merge=3 / limit-refs=3 / limit-modes / me=3 / subme=3 / merange=57 / temporal-mvp / no-frame-dup / no-hme / weightp / no-weightb / no-analyze-src-pics / deblock=-3:-3 / no-sao / no-sao-non-deblock / rd=4 / selective-sao=0 / no-early-skip / rskip / no-fast-intra / no-tskip-fast / no-cu-lossless / no-b-intra / no-splitrd-skip / rdpenalty=0 / psy-rd=2.00 / psy-rdoq=1.00 / no-rd-refine / no-lossless / cbqpoffs=0 / crqpoffs=0 / rc=crf / crf=16.2 / qcomp=0.60 / qpstep=4 / stats-write=0 / stats-read=0 / vbv-maxrate=160000 / vbv-bufsize=160000 / vbv-init=0.9 / min-vbv-fullness=50.0 / max-vbv-fullness=80.0 / crf-max=0.0 / crf-min=0.0 / ipratio=1.40 / pbratio=1.30 / aq-mode=2 / aq-strength=1.00 / cutree / zone-count=0 / no-strict-cbr / qg-size=32 / no-rc-grain / qpmax=69 / qpmin=0 / no-const-vbv / sar=1 / overscan=0 / videoformat=5 / range=0 / colorprim=9 / transfer=16 / colormatrix=9 / chromaloc=1 / chromaloc-top=2 / chromaloc-bottom=2 / display-window=0 / master-display=G(13250,34500)B(7500,3000)R(34000,16000)WP(15635,16450)L(10000000,1) / cll=1000,289 / min-luma=0 / max-luma=1023 / log2-max-poc-lsb=8 / vui-timing-info / vui-hrd-info / slices=1 / no-opt-qp-pps / no-opt-ref-list-length-pps / no-multi-pass-opt-rps / scenecut-bias=0.05 / no-opt-cu-delta-qp / no-aq-motion / no-sbrc / hdr10 / hdr10-opt / no-dhdr10-opt / no-idr-recovery-sei / analysis-reuse-level=0 / analysis-save-reuse-level=0 / analysis-load-reuse-level=0 / scale-factor=0 / refine-intra=0 / refine-inter=0 / refine-mv=1 / refine-ctu-distortion=0 / no-limit-sao / ctu-info=0 / no-lowpass-dct / refine-analysis-type=0 / copy-pic=1 / max-ausize-factor=1.0 / no-dynamic-refine / no-single-sei / no-hevc-aq / no-svt / no-field / qp-adaptation-range=1.00 / scenecut-aware-qp=0conformance-window-offsets / right=0 / bottom=0 / decoder-max-rate=0 / no-vbv-live-multi-pass / no-mcstf
Default          : Yes
Forced       : No
Color range      : Limited
Color primaries      : BT.2020
Transfer characteristics     : PQ
Matrix coefficients      : BT.2020 non-constant
Mastering display color primaries    : Display P3
Mastering display luminance      : min: 0.0001 cd/m2, max: 1000 cd/m2
Maximum Content Light Level      : 1000 cd/m2
Maximum Frame-Average Light Level    : 289 cd/m2

Audio #1
ID           : 2
Format       : DTS XLL
Format/Info      : Digital Theater Systems
Commercial name      : DTS-HD Master Audio
Codec ID         : A_DTS
Duration         : 3 h 21 min
Bit rate mode        : Variable
Bit rate         : 4 136 kb/s
Channel(s)       : 6 channels
Channel layout       : C L R Ls Rs LFE
Sampling rate        : 48.0 kHz
Frame rate       : 93.750 FPS (512 SPF)
Bit depth        : 24 bits
Compression mode     : Lossless
Stream size      : 5.83 GiB (11%)
Language         : English
Default          : Yes
Forced       : No

Audio #2
ID           : 3
Format       : AAC LC
Format/Info      : Advanced Audio Codec Low Complexity
Codec ID         : A_AAC-2
Duration         : 3 h 21 min
Bit rate         : 110 kb/s
Channel(s)       : 2 channels
Channel layout       : L R
Sampling rate        : 48.0 kHz
Frame rate       : 46.875 FPS (1024 SPF)
Compression mode     : Lossy
Delay relative to video      : 9 ms
Stream size      : 159 MiB (0%)
Title        : Commentary
Language         : English
Default          : No
Forced       : No

Text
ID           : 4
Format       : PGS
Muxing mode      : zlib
Codec ID         : S_HDMV/PGS
Codec ID/Info        : Picture based subtitle format used on BDs/HD-DVDs
Duration         : 3 h 21 min
Bit rate         : 75.5 kb/s
Frame rate       : 0.580 FPS
Count of elements        : 7019
Stream size      : 109 MiB (0%)
Title        : English SDH
Language         : English
Default          : No
Forced       : No

Menu
00:00:00.000         : en:Chapter 01
00:03:00.222         : en:Chapter 02
00:10:16.366         : en:Chapter 03
00:18:26.397         : en:Chapter 04
00:21:45.513         : en:Chapter 05
00:28:08.228         : en:Chapter 06
00:36:31.231         : en:Chapter 07
00:39:57.270         : en:Chapter 08
00:45:41.072         : en:Chapter 09
00:50:06.879         : en:Chapter 10
01:00:40.470         : en:Chapter 11
01:08:21.306         : en:Chapter 12
01:18:01.302         : en:Chapter 13
01:25:43.388         : en:Chapter 14
01:27:58.940         : en:Chapter 15
01:32:08.732         : en:Chapter 16
01:36:12.141         : en:Chapter 17
01:41:01.514         : en:Chapter 18
01:49:06.957         : en:Chapter 19
01:54:03.128         : en:Chapter 20
01:56:59.095         : en:Chapter 21
02:02:50.405         : en:Chapter 22
02:13:29.543         : en:Chapter 23
02:19:19.184         : en:Chapter 24
02:25:59.584         : en:Chapter 25
02:29:38.845         : en:Chapter 26
02:34:14.328         : en:Chapter 27
02:42:39.708         : en:Chapter 28
02:45:58.949         : en:Chapter 29
02:50:56.329         : en:Chapter 30
02:56:52.060         : en:Chapter 31
03:07:03.212         : en:Chapter 32
03:12:35.502         : en:Chapter 33
03:21:52.851         : en:Chapter 34

    

悠悠MP4_MP4电影下载_黑潮 Malcolm.X.1992.2160p.UHD.BluRay.x265.10bit.HDR.DTS-HD.MA.5.1-B0MBARDiERS 51.27 GB
悠悠MP4_MP4电影下载_黑潮 Malcolm.X.1992.2160p.UHD.BluRay.x265.10bit.HDR.DTS-HD.MA.5.1-B0MBARDiERS 51.27 GB
悠悠MP4_MP4电影下载_黑潮 Malcolm.X.1992.2160p.UHD.BluRay.x265.10bit.HDR.DTS-HD.MA.5.1-B0MBARDiERS 51.27 GB

磁力链接


    
    【公告】近期迅雷频繁屏蔽资源临时解决办法
    
    箭径酸风射眼,腻水染花腥。时靸双鸳响,廊叶秋声。含情凝睇谢君王,一别音容两渺茫。电影下载,MP4下载,高清电影,电影排行榜,电影票房43、Man proposes, God disposes.

热门电影下载

最新电影下载

电影票房排行榜