电影下载

亲密正义 Adrianas.Pact.2017.SPANISH.ENSUBBED.1080p.WEBRip.AAC2.0.x264-CANDY 2.94 GB

亲密正义 Adrianas.Pact.2017.SPANISH.ENSUBBED.1080p.WEBRip.AAC2.0.x264-CANDY 2.94 GB

  • 版本:高清完整版
  • 发布:

电影介绍

    亲密正义 Adrianas.Pact.2017.SPANISH.ENSUBBED.1080p.WEBRip.AAC2.0.x264-CANDY 2.94 GB胆千钧一发大包慢条斯理天40. 我慢慢走着,我走爱绿之上,我走在绿之间,我走在绿之下。绿在我里,我在绿里。90. It is a good opportunity for the only child like me to learn to share and work together.(2008.福建)255.月落乌啼霜满天,江枫渔火对愁眠。姑苏城外寒山寺,夜半钟声到客船。张继《枫桥夜泊》

    悠悠MP4_MP4电影下载_亲密正义 Adrianas.Pact.2017.SPANISH.ENSUBBED.1080p.WEBRip.AAC2.0.x264-CANDY 2.94 GB

◎片  名 亲密正义 El Pacto de Adriana / Adriana's Pact
◎年  代 2017
◎产  地 智利 / 哥伦比亚
◎类  别 纪录片
◎语  言 西班牙语
◎上映日期 2017-02-10(柏林电影节)
◎IMDb评分  7.6/10 from 196 users
◎IMDb链接  https://www.imdb.com/title/tt6483258/
◎豆瓣评分 /10 from 0 users
◎豆瓣链接 https://movie.douban.com/subject/27120444/
◎片  长 96分钟
◎导  演 
◎编  剧 
◎主  演 

◎简  介

  An astonishing documentary about a woman who is looking about her aunt past during Pinochet's period in Chile.
    


    
Video
ID           : 1
Format       : AVC
Format/Info      : Advanced Video Codec
Format profile       : [email protected]
Format settings      : CABAC / 5 Ref Frames
Format settings, CABAC      8. 骏马是跑出来的,强兵是打出来的。 : Yes
Format settings, Reference frames    : 5 frames
Codec ID         : V_MPEG4/ISO/AVC
Duration         : 1 h 33 min
Bit rate         : 4 241 kb/s
Width        : 1 920 pixels
Height       : 1 080 pixels
Display aspect ratio     : 16:9
Frame rate mode      : Constant
Frame rate       : 24.000 FPS
Color space      : YUV
Chroma subsampling       : 4:2:0
Bit depth        : 8 bits
Scan type        : Progressive
Bits/(Pixel*Frame)       : 0.085
Stream size      : 2.77 GiB (94%)
Writing library      : x264 core 159 r10 1771b55
Encoding settings        : cabac=1 / ref=5 / deblock=1:0:0 / analyse=0x3:0x113 / me=hex / subme=8 / psy=1 / psy_rd=1.00:0.00 / mixed_ref=1 / me_range=16 / chroma_me=1 / trellis=2 / 8x8dct=1 / cqm=0 / deadzone=21,11 / fast_pskip=1 / chroma_qp_offset=-2 / threads=34 / lookahead_threads=5 / sliced_threads=0 / nr=0 / decimate=1 / interlaced=0 / bluray_compat=0 / stitchable=1 / constrained_intra=0 / bframes=3 / b_pyramid=2 / b_adapt=2 / b_bias=0 / direct=3 / weightb=1 / open_gop=0 / weightp=2 / keyint=infinite / keyint_min=24 / scenecut=40 / intra_refresh=0 / rc_lookahead=50 / rc=crf / mbtree=1 / crf=20.0 / qcomp=0.60 / qpmin=5 / qpmax=69 / qpstep=4 / vbv_maxrate=5500 / vbv_bufsize=15000 / crf_max=0.0 / nal_hrd=none / filler=0 / ip_ratio=1.40 / aq=1:1.00
Default          : Yes
Forced       : No
Color range      : Limited
Color primaries      : BT.709
Transfer characteristics     : BT.709
Matrix coefficients      : BT.709

Audio
ID           : 2
Format       : AAC LC
Format/Info      : Advanced Audio Codec Low Complexity
Codec ID         : A_AAC-2
Duration         : 1 h 33 min
Bit rate         : 253 kb/s
Channel(s)       : 2 channels
Channel layout       : L R
Sampling rate        : 48.0 kHz
Frame rate       : 46.875 FPS (1024 SPF)
Compression mode     : Lossy
Stream size      : 170 MiB (6%)
Default          : Yes
Forced       : No

    

悠悠MP4_MP4电影下载_亲密正义 Adrianas.Pact.2017.SPANISH.ENSUBBED.1080p.WEBRip.AAC2.0.x264-CANDY 2.94 GB
悠悠MP4_MP4电影下载_亲密正义 Adrianas.Pact.2017.SPANISH.ENSUBBED.1080p.WEBRip.AAC2.0.x264-CANDY 2.94 GB
悠悠MP4_MP4电影下载_亲密正义 Adrianas.Pact.2017.SPANISH.ENSUBBED.1080p.WEBRip.AAC2.0.x264-CANDY 2.94 GB

磁力链接


    
    【公告】近期迅雷频繁屏蔽资源临时解决办法
    
    夜游宫 周邦彦寄身且喜沧洲近,顾影无如白发何!电影下载,MP4下载,高清电影,电影排行榜,电影票房It has taken a long time to convince the public that free enterprise does not mean that a company should be free to pollute the air, foul the rivers, and destroy the forests.

热门电影下载

最新电影下载

电影票房排行榜