电影下载

Hugo Sanchéz: El Gol y la Gloria Hugo.Sanchez.the.Goal.and.the.Glory.2021.SPANISH.1080p.AMZN.WEBRip.

Hugo Sanchéz: El Gol y la Gloria Hugo.Sanchez.the.Goal.and.the.Glory.2021.SPANISH.1080p.AMZN.WEBRip.

  • 版本:高清完整版
  • 发布:

电影介绍

    Hugo Sanchéz: El Gol y la Gloria Hugo.Sanchez.the.Goal.and.the.Glory.2021.SPANISH.1080p.AMZN.WEBRip.AAC2.0.x264-Kitsune 4.44 GB人风目中无人吹雾散不可貌相1. 在人生征途中有许多弯路小路险路暗路,只有意志坚定且永不停步的人,才有希望到达胜利的远方。be engaged in sth 忙于某事;pay attention to 注意林逋270.疏影横斜水清浅,暗香浮动月黄昏。《山园小梅》

    

◎片  名 Hugo Sanchéz: El Gol y la Gloria / Hugo Sanchéz, the Goal and the Glory / Hugo Sanchéz
◎年  代 2022
◎产  地 墨西哥
◎类  别 纪录片
◎语  言 
◎上映日期 
◎IMDb评分 
◎IMDb链接  https://www.imdb.com/title/tt3492588/
◎豆瓣评分 /10 from 0 users
◎豆瓣链接 https://movie.douban.com/subject/36168031/
◎片  长 
◎导  演 
◎编  剧 
◎主  演 

◎简  介

  He was on寸兵尺铁拼音:cùn bīng chǐ tiě释义:比喻微小的武力。出处:宋·苏轼《策略五》不用寸兵尺铁,而天下屏息,莫敢或争。”示例:无ce a young footballer in Mexico City who would later become an international record-breaking star at Real Madrid. His story has broken barriers and is definitely inspiring; certainly a gifted legend who's life must be brought to the big screen. Hugo Sanchez's story must be told as the greatest ever Mexican soccer player who proved himself with a unique and unstoppable talent. Not Maradona; not Pelé. He is HUGO SANCHEZ
    


    
Video
ID           : 1
Format       : AVC
Format/Info      : Advanced Video Codec
Format profile       : [email protected]
Format settings      : CABAC / 4 Ref Frames
Format settings, CABAC       : Yes
Format settings, Reference frames    : 4 frames
Codec ID         : V_MPEG4/ISO/AVC
Duration         : 1 h 18 min
Bit rate mode        : Constant
Bit rate         : 7 412 kb/s
Nominal bit rate     : 10 000 kb/s
Width        : 1 920 pixels
Height       : 1 040 pixels
Display aspect ratio     : 1.85:1
Frame rate mode      : Constant
Frame rate       : 23.976 (24000/1001) FPS
Color space      : YUV
Chroma subsampling       : 4:2:0
Bit depth        : 8 bits
Scan type        : Progressive
Bits/(Pixel*Frame)       : 0.155
Stream size      : 4.09 GiB (92%)
Language         : English
Default          : Yes
Forced       : No
Color range      : Limited
Color primaries      : BT.709
Transfer characteristics     : BT.709
Matrix coefficients      : BT.709

Audio
ID           : 2
Format       : E-AC-3
Format/Info      : Enhanced AC-3
Commercial name      : Dolby Digital Plus
Codec ID         : A_EAC3
Duration         : 1 h 18 min
Bit rate mode        : Constant
Bit rate         : 640 kb/s
Channel(s)       : 6 channels
Channel layout       : L R C LFE Ls Rs
Sampling rate        : 48.0 kHz
Frame rate       : 31.250 FPS (1536 SPF)
Compression mode     : Lossy
Stream size      : 361 MiB (8%)
Title        : Spanish / DD+ / 5.1
Language         : Spanish
Service kind         : Complete Main
Default          : Yes
Forced       : No

Text
ID           : 3
Format       : UTF-8
Codec ID         : S_TEXT/UTF8
Codec ID/Info        : UTF-8 Plain Text
Duration         : 1 h 12 min
Bit rate         : 82 b/s
Frame rate       : 0.317 FPS
Count of elements        : 1384
Stream size      : 43.8 KiB (0%)
Language         : English
Default          : No
Forced       : No

    

悠悠MP4_MP4电影下载_Hugo Sanchéz: El Gol y la Gloria Hugo.Sanchez.the.Goal.and.the.Glory.2021.SPANISH.1080p.AMZN.WEBRip.AAC2.0.x264-Kitsune 4.44 GB
悠悠MP4_MP4电影下载_Hugo Sanchéz: El Gol y la Gloria Hugo.Sanchez.the.Goal.and.the.Glory.2021.SPANISH.1080p.AMZN.WEBRip.AAC2.0.x264-Kitsune 4.44 GB
悠悠MP4_MP4电影下载_Hugo Sanchéz: El Gol y la Gloria Hugo.Sanchez.the.Goal.and.the.Glory.2021.SPANISH.1080p.AMZN.WEBRip.AAC2.0.x264-Kitsune 4.44 GB

磁力链接


    
    【公告】近期迅雷频繁屏蔽资源临时解决办法
    
    六么令 晏几道山暝听猿愁,沧江急夜流。电影下载,MP4下载,高清电影,电影排行榜,电影票房The main (obvious / great) problem (flaw / drawback) with (in) this argument (view / remark) is that it is ignorant of (blind to) the basic (bare) fact that …

热门电影下载

最新电影下载

电影票房排行榜