电影下载

Appiness Appiness.2018.1080p.AMZN.WEBRip.DDP2.0.x264-SiGLA 5.56 GB

Appiness Appiness.2018.1080p.AMZN.WEBRip.DDP2.0.x264-SiGLA 5.56 GB

  • 版本:高清完整版
  • 发布:

电影介绍

    Appiness Appiness.2018.1080p.AMZN.WEBRip.DDP2.0.x264-SiGLA 5.56 GB痛管中窥豹定思手无缚鸡之力痛10. 不是一场赛跑,而是一次旅行。比赛在乎终点,而旅行在乎沿途风景。25.责任感 / 成就感 sense of responsibility/ sense of achievement329.山外青山楼外楼,西湖歌舞几时休?暖风熏得游人醉,直把杭州作汴州。林升《题临安邸》

    悠悠MP4_MP4电影下载_Appiness Appiness.2018.1080p.AMZN.WEBRip.DDP2.0.x264-SiGLA 5.56 GB

◎片  名 Appiness
◎年  代 2018
◎产  地 加拿大
◎类  别 喜剧
◎语  言 英语
◎上映日期 
◎IMDb评分  4.9/10 from 347 users
◎IMDb链接  https://www.imdb.com/title/tt7145708/
◎豆瓣评分 /10 from 0 users
◎豆瓣链接 https://movie.douban.com/subject/34960121/
◎片  长 
◎导  演 
◎编  剧 
◎主  演 安柏·戈德法布 Amber Goldfarb

◎简  介

  When Eric and Raj, old high school buds, try to build the next great app and become billionaires - they don't.
    


    
Video
ID           : 1
Format       : AVC
Format/Info      : Advanced Video Codec
Format profile       : [email protected]
Format settings      : CABAC / 4 Ref Frames
Format settings, CABAC       : Yes
Format settings, Reference frames    : 4 frames
Codec ID         : V_MPEG4/ISO/AVC
Duration         : 1 h 22 min
Bit rate mode        : Constant
Bit rate         : 9 455 kb/s
Nominal bit rate     : 10 000 kb/s
Width        : 1 920 pixels
Height       : 1 080 pixels
Display aspect ratio     : 16:9
Frame rate mode      : Constant
Frame rate       : 23.976 (24000/1001) FPS
Color space      : YUV
Chroma subsampling       : 4:2:0
Bit depth        : 8 bits
Scan type        : Progressive
Bits/(Pixel*Frame)       : 0.190
Stream size      : 5.43 GiB (98%)
Default          : Yes
Forced       : No
Color range      : Limited
Color primaries      : BT.709
Transfer characteristics     : BT.709
Matrix coefficients      : BT.709

Audio
ID           : 2
Format       : E-AC-3
Format/Info      : Enhanced AC-3
Commercial name      : Dolby Digital Plus
Codec ID         : A_EAC3
Duration         : 1 h 22 min
Bit rate mode        : Constant
Bit rate         : 224 kb/s
Channel(s)       : 2 channels
Channel layout       : L R
Sampling rate        : 48.0 kHz
Frame rate       : 31.250 FPS (1536 SPF)
Compression mode     : Lossy
Stream size      : 132 MiB (2%)
Language         : English
Service kind         : Complete Main
Default          : Yes
Forced       : No

Text #1
ID           : 3
Format       : UTF-8
Codec ID         : S_TEXT/UTF8
Codec ID/Info        : UTF-8 Plain Text
Duration         : 1 h 18 min
Bit rate         : 74 b/s
Frame rate       : 0.245 FPS
Count of elements        : 1160
Stream size      : 43.1 KiB (0%)
Language         : English
Default          : No
Forced       : No

Text #2
ID           : 4
Format       : UTF-8
Codec ID         : S_TEXT/UTF8
Codec ID/Info        : UTF-8 Plain Text
Duration         : 1 h 19 min
Bit rate         : 79 b/s
Frame rate       : 0.261 FPS
Count of elements        : 1240
Stream size      : 45.9 KiB (0%)
Title        : SDH
Language         : English
Default          : No
Forced       : No

    

悠悠MP4_MP4电影下载_Appiness Appiness.2018.1080p.AMZN.WEBRip.DDP2.0.x264-SiGLA 5.56 GB
悠悠MP4_MP4电影下载_Appiness Appiness.2018.1080p.AMZN.WEBRip.DDP2.0.x264-SiGLA 5.56 GB
悠悠MP4_MP4电影下载_Appiness Appiness.2018.1080p.AMZN.WEBRip.DDP2.0.x264-SiGLA 5.56 GB

磁力链接


    
    【公告】近期迅雷频繁屏蔽资源临时解决办法
    
    楼上几日春寒,帘垂四面,玉阑干慵倚。被冷香消新梦觉,不许愁人不起。无边落木萧萧下,不尽长江滚滚来。电影下载,MP4下载,高清电影,电影排行榜,电影票房It is possible that the sales trend in a particular location is not representative of sales in other regions.

热门电影下载

最新电影下载

电影票房排行榜