电影下载

艾达市长 Ada.For.Mayor.2016.SPANISH.ENSUBBED.1080p.WEBRip.AAC2.0.x264-CANDY 3.08 GB

艾达市长 Ada.For.Mayor.2016.SPANISH.ENSUBBED.1080p.WEBRip.AAC2.0.x264-CANDY 3.08 GB

  • 版本:高清完整版
  • 发布:

电影介绍

    艾达市长 Ada.For.Mayor.2016.SPANISH.ENSUBBED.1080p.WEBRip.AAC2.0.x264-CANDY 3.08 GB倾盆鸡鸣狗盗大窗明几静雨26. 想来,生命之宴也是如此吧?我对生命中的涓滴每有一分赏悦。上帝总赐下万道流泉。我为其中的某一个音符凝神他总赐下整匹的音乐如素锦。生命的厚礼,原来只赏赐给那些肯于一尝的人。57. I have such a good command of English that I am elected as assistant to my English teacher.(2015.陕西)312.死去元知万事空,但悲不见九州同。王师北定中原日,家祭无忘告乃翁。《示儿》

    悠悠MP4_MP4电影下载_艾达市长 Ada.For.Mayor.2016.SPANISH.ENSUBBED.1080p.WEBRip.AAC2.0.x264-CANDY 3.08 GB

◎片  名 艾达市长 Alcaldessa / Ada for Mayor
◎年  代 2016
◎产  地 西班牙
◎类  别 纪录片
◎语  言 西班牙语 / 加泰罗尼亚语
◎上映日期 
◎IMDb评分  6.9/10 from 98 users
◎IMDb链接  https://www.imdb.com/title/tt5611958/
◎豆瓣评分 /10 from 0 users
◎豆瓣链接 https://movie.douban.com/subject/30323875/
◎片  长 88分钟
◎导  演 
◎编  剧 
◎主  演 

◎简  介

  这部纪录片追随Ada Colau的步伐历时一年,记录了从她被选为巴塞罗那市长候选人的演讲,一直到她被任命为市长的那一天。影片近距离展示了Ada Colau的生活,如群众集会以及所属政党的会议。本片向我们展示了同一枚硬币的两面性:一方面是历史性的胜利,这是欧洲正在发生的政治变化的范例;另一方面则是那些认为自己成为他人质疑对象的人的内心斗争。
    


    
Video
ID           : 1
Format       : AVC
Format/Info      : Advanced Video Codec
Format profile       : [email protected]
Format settings      : CABAC / 5 Ref Frames
Format settings, CABAC       : Yes
Format settings, Reference frames    : 5 frames
Codec ID         : V_MPEG4/ISO/AVC
Duration         : 1 h 25 min
Bit rate         : 4 903 kb/s
Width        : 1 920 pixels
Height       : 1 080 pixels
Display aspect ratio     : 16:9
Frame rate mode      : Constant
Frame rate       : 25.000 FPS
Color space      : YUV
Chroma subsampling       : 4:2:0
Bit depth        : 8 bits
Scan type        : Progressive
Bits/(Pixel*Frame)       : 0.095
Stream size      : 2.93 GiB (95%)
Writing library      : x264 core 159 r10 1771b55
Encoding settings        : cabac=1 / ref=5 / deblock=1:0:0 / analyse=0x3:0x113 / me=hex / subme=8 / psy=1 / psy_rd=1.00:0.00 / mixed_ref=1 / me_range=16 / chroma_me=1 / trellis=2 / 8x8dct=1 / cqm=0 / deadzone=21,11 / fast_pskip=1 / chroma_qp_offset=-2 / threads=34 / lookahead_threads=5 / sliced_threads=0 / nr=0 / decimate=1 / interlaced=0 / bluray_compat=0 / stitchable=1 / constrained_intra=0 / bframes=3 / b_pyramid=2 / b_adapt=2 / b_bias=0 / direct=3 / weightb=1 / open_gop=0 / weightp=2 / keyint=infinite / keyint_min=25 / scenecut=40 / intra_refresh=0 / rc_lookahead=50 / rc=crf / mbtree=1 / crf=20.0 / qcomp=0.60 / qpmin=5 / qpmax=69 / qpstep=4 / vbv_maxrate=5500 / vbv_bufsize=15000 / crf_max=0.0 / nal_hrd=none / filler=0 / ip_ratio=1.40 / aq=1:1.00
Default          : Yes
Forced       : No
Color range      : Limited
Color primaries      : BT.709
Transfer characteristics     : BT.709
Matrix coefficients      : BT.709

Audio
ID           : 2
Format       : AAC LC
Format/Info      : Advanced Audio Codec Low Complexity
Codec ID         : A_AAC-2
Duration         : 1 h 25 min
Bit rate         : 253 kb/s
Channel(s)       : 2 channels
Channel layout       : L R
Sampling rate        : 48.0 kHz
Frame rate       : 46.875 FPS (1024 SPF)
Compression mode     : Lossy
Stream size      : 155 MiB (5%)
Language: Spanish
Default          : Yes
Forced       : No

    

悠悠MP4_MP4电影下载_艾达市长 Ada.For.Mayor.2016.SPANISH.ENSUBBED.1080p.WEBRip.AAC2.0.x264-CANDY 3.08 GB
悠悠MP4_MP4电影下载_艾达市长 Ada.For.Mayor.2016.SPANISH.ENSUBBED.1080p.WEBRip.AAC2.0.x264-CANDY 3.08 GB
悠悠MP4_MP4电影下载_艾达市长 Ada.For.Mayor.2016.SPANISH.ENSUBBED.1080p.WEBRip.AAC2.0.x264-CANDY 3.08 GB

磁力链接


    
    【公告】近期迅雷频繁屏蔽资源临时解决办法
    
    八六子 秦观多情只有春庭月,犹为离人照落花。电影下载,MP4下载,高清电影,电影排行榜,电影票房In all the discussion and debate over…, one important (basic) fact is generally overlooked (neglected).

热门电影下载

最新电影下载

电影票房排行榜