电影下载

Suite 313 Suite.313.2017.1080p.BluRay.x264.DD2.0-HANDJOB 5.45 GB

Suite 313 Suite.313.2017.1080p.BluRay.x264.DD2.0-HANDJOB 5.45 GB

  • 版本:高清完整版
  • 发布:

电影介绍

    Suite 313 Suite.313.2017.1080p.BluRay.x264.DD2.0-HANDJOB 5.45 GB人风景倾盆大雨如画山人海36. 用心人生看到的世界是一片阳光,消极人生看到的世界是一片黑暗;用心人生感受到的生活是无比快乐,消极人生心里感觉到的仅是一丝丝悲凉。2. The harder you work at it, the more progress you will make.35.君子喻于义,小人喻于利。

    悠悠MP4_MP4电影下载_Suite 313 Suite.313.2017.1080p.BluRay.x264.DD2.0-HANDJOB 5.45 GB

◎片  名 Suite 313
◎年  代 2017
◎产  地 意大利
◎类  别 动作 / 恐怖
◎语  言 意大利语
◎上映日期 2017-07-13(意大利)
◎IMDb评分  5.2/10 from 508 users
◎IMDb链接  https://www.imdb.com/title/tt7060566/
◎豆瓣评分 /10 from 0 users
◎豆瓣链接 https://movie.douban.com/subject/27097003/
◎片  长 63分钟
◎导  演 
◎编  剧 
◎主  演 

◎简  介

  Special Agent Alexander Connor is sent to investigate a house, from which a woman named Sandra has made numerous 911 calls. Things become more complicated than expected for Agent Connor, as he finds he must also rescue a police officer who responded to the home 24 hours earlier. Soon, Agent Connor will discover a horrifying secret; that Sandra is one of LUMEN CORPORATION's donors and has devoted her house to the corporation; a house which has been turned into a research lab for atrocious experiments performed on human beings.
    


    
Video
ID           : 1
Format       : AVC
Format/Info      : Advanced Video Codec
Format profile       : [email protected]
Format settings      : CABAC / 4 Ref Frames
Format settings, CABAC       : Yes
Format settings, Reference frames    : 4 frames
Codec ID         : V_MPEG4/ISO/AVC
Duration         : 1 h 5 min
Bit rate         : 11.7 Mb/s
Width        : 1 920 pixels
Height       : 1 080 pixels
Display aspect ratio     : 16:9
Frame rate mode      : Constant
Frame rate       : 23.976 (24000/1001) FPS
Color space      : YUV
Chroma subsampling       : 4:2:0
Bit depth        : 8 bits
Scan type        : Progressive
Bits/(Pixel*Frame)27. 难过的时候摸摸自己的胸,告诉自己是汉子,要坚强!       : 0.236
Stream size      : 5.36 GiB (98%)
Writing library      : x264 core 164 r3065 ae03d92
Encoding settings        : cabac=1 / ref=4 / deblock=1:-3:-3 / analyse=0x3:0x133 / me=umh / subme=10 / psy=1 / psy_rd=1.00:0.00 / mixed_ref=1 / me_range=32 / chroma_me=1 / trellis=2 / 8x8dct=1 / cqm=0 / deadzone=21,11 / fast_pskip=0 / chroma_qp_offset=-2 / threads=34 / lookahead_threads=8 / sliced_threads=0 / nr=0 / decimate=0 / interlaced=0 / bluray_compat=0 / constrained_intra=0 / bframes=16 / b_pyramid=2 / b_adapt=2 / b_bias=0 / direct=3 / weightb=1 / open_gop=0 / weightp=2 / keyint=240 / keyint_min=24 / scenecut=40 / intra_refresh=0 / rc_lookahead=60 / rc=crf / mbtree=0 / crf=19.2 / qcomp=0.60 / qpmin=0 / qpmax=69 / qpstep=4 / vbv_maxrate=62500 / vbv_bufsize=78125 / crf_max=0.0 / nal_hrd=none / filler=0 / ip_ratio=1.40 / pb_ratio=1.30 / aq=2:1.00
Default          : Yes
Forced       : No
Color range      : Limited
Color primaries      : BT.709
Transfer characteristics     : BT.709
Matrix coefficients      : BT.709

Audio
ID           : 2
Format       : AC-3
Format/Info      : Audio Coding 3
Commercial name      : Dolby Digital
Codec ID         : A_AC3
Duration         : 1 h 3 min
Bit rate mode        : Constant
Bit rate         : 192 kb/s
Channel(s)       : 2 channels
Channel layout       : L R
Sampling rate        : 48.0 kHz
Frame rate       : 31.250 FPS (1536 SPF)
Compression mode     : Lossy
Stream size      : 87.5 MiB (2%)
Language         : English
Service kind         : Complete Main
Default          : Yes
Forced       : No

Text #1
ID           : 3
Format       : UTF-8
Codec ID         : S_TEXT/UTF8
Codec ID/Info        : UTF-8 Plain Text
Duration         : 58 min 1 s
Bit rate         : 29 b/s
Count of elements        : 327
Stream size      : 12.6 KiB (0%)
Language         : English
Default          : No
Forced       : No

Text #2
ID           : 4
Format       : PGS
Muxing mode      : zlib
Codec ID         : S_HDMV/PGS
Codec ID/Info        : Picture based subtitle format used on BDs/HD-DVDs
Duration         : 1 h 3 min
Bit rate         : 11.2 kb/s
Count of elements        : 699
Stream size      : 5.09 MiB (0%)
Language         : German
Default          : No
Forced       : No

Text #3
ID           : 5
Format       : PGS
Muxing mode      : zlib
Codec ID         : S_HDMV/PGS
Codec ID/Info        : Picture based subtitle format used on BDs/HD-DVDs
Duration         : 1 h 3 min
Bit rate         : 9 188 b/s
Count of elements        : 699
Stream size      : 4.17 MiB (0%)
Language         : Italian
Default          : No
Forced       : No

Text #4
ID           : 6
Format       : PGS
Muxing mode      : zlib
Codec ID         : S_HDMV/PGS
Codec ID/Info        : Picture based subtitle format used on BDs/HD-DVDs
Duration         : 1 h 3 min
Bit rate         : 6 310 b/s
Count of elements        : 699
Stream size      : 2.86 MiB (0%)
Language         : Japanese
Default          : No
Forced       : No

Menu
00:00:00.083         : :Chapter 1
00:02:00.329         : :Chapter 2
00:06:20.463         : :Chapter 3
00:11:47.790         : :Chapter 4
00:15:11.494         : :Chapter 5
00:22:12.414         : :Chapter 6
00:28:26.288         : :Chapter 7
00:40:51.532         : :Chapter 8
00:51:44.685         : :Chapter 9
01:01:32.272         : :Chapter 10

    

悠悠MP4_MP4电影下载_Suite 313 Suite.313.2017.1080p.BluRay.x264.DD2.0-HANDJOB 5.45 GB
悠悠MP4_MP4电影下载_Suite 313 Suite.313.2017.1080p.BluRay.x264.DD2.0-HANDJOB 5.45 GB
悠悠MP4_MP4电影下载_Suite 313 Suite.313.2017.1080p.BluRay.x264.DD2.0-HANDJOB 5.45 GB

磁力链接


    
    喜迁莺 刘一生本以高难饱,徒劳恨费声。电影下载,MP4下载,高清电影,电影排行榜,电影票房11.More hasty,less speed. 欲速则不达。

热门电影下载

最新电影下载

电影票房排行榜