电影下载

月球陨落 Moonfall.2022.2160p.WEB-DL.x265.10bit.HDR.DDP5.1.Atmos-NOGRP 22.57 GB

月球陨落 Moonfall.2022.2160p.WEB-DL.x265.10bit.HDR.DDP5.1.Atmos-NOGRP 22.57 GB

  • 版本:高清完整版
  • 发布:

电影介绍

    月球陨落 Moonfall.2022.2160p.WEB-DL.x265.10bit.HDR.DDP5.1.Atmos-NOGRP 22.57 GB腾空百积少成多发百中而起8. 我愿长年地守望你,熟悉你的潮汐变幻,了解你的每一拍波涛。我将尝试着同时去爱你那忧郁沉静的蓝和春明亮的白——甚至风雨之夕的灰浊。83. We must learn to handle conflicts calmly and wisely.(2012.江苏)365.冤家宜解不宜结,各自回头看后头。《古今小说》

    悠悠MP4_MP4电影下载_月球陨落 Moonfall.2022.2160p.WEB-DL.x265.10bit.HDR.DDP5.1.Atmos-NOGRP 22.57 GB

◎片  名 月球陨落 Moonfall / 月球坠落
◎年  代 2022
◎产  地 美国 / 中国大陆 / 英国
◎类  别 科幻 / 灾难
◎语  言 英语 / 汉语普通话
◎上映日期 2022-03-25(中国大陆) / 2022-02-04(美国)
◎IMDb评分  5.2/10 from 19234 users
◎IMDb链接  https://www.imdb.com/title/tt5834426/
◎豆瓣评分 5.3/10 from 33452 users
◎豆瓣链接 https://movie.douban.com/subject/26825482/
◎片  长 130分钟
◎导  演 罗兰·艾默里奇 Roland Emmerich
◎编  剧 罗兰·艾默里奇 Roland Emmerich
       哈洛德·克卢瑟 Harald Kloser
       斯宾塞·科恩 Spenser Cohen
◎主  演 哈莉·贝瑞 Halle Berry
       帕特里克·威尔森 Patrick Wilson
       约翰·布莱德利 John Bradley
       于文文 Kelly Yu
       迈克尔·佩纳 Michael Peña
       唐纳德·萨瑟兰 Donald Sutherland
       查理·普拉默 Charlie Plummer
       艾米·伊库瓦克 Eme Ikwuakor
       卡罗林纳·巴特察克 Carolina Bartczak
       马克西姆·罗伊 Maxim Roy
       斯蒂夫·博加尔特 Stephen Bogaert
       蒂龙·本斯金 Tyrone Benskin
       乔什·克鲁达斯 Josh Cruddas
       凯蒂·布赖尔 Katy Breier
       克里斯·桑迪福德 Chris Sandiford
       兰迪·托马斯 Randy Thomas
       克里什陶·马尔尚 Krista Marchand
       泰勒·艾略特·伯克 Tyler Elliot Burke
       娜塔莉·希波蒂 Nathaly Thibault
       贾·史密斯-约翰逊 Jaa Smith-Johnson
       史蒂文·皮奥维森 Steven Piovesan
       大卫·泰勒 David Tyler

◎简  介

  月球开始偏离轨道,离撞上地球的时间线越来越近,危机时刻,美国国防部提出使用核弹,来让月球重新回到正常轨道。但“假冒博士”(约翰·布莱德利饰)发现,月球内部是空的,显然是有外星文明在操控着月球的轨迹。这个计划逐渐被两位宇航员(帕特里克·威尔森和哈莉·贝瑞饰)接受,但前者因为多年前的一起太空事故,已被美国国家航空航天局开除,关键时刻,已经升为负责人的后者拍板,决定用一台被废弃在博物馆中的航天飞船再次升空飞往月球,借助前者超强的驾驶经验,深入月球地心完成任务。
    


    
Video
ID           : 1
Format       : HEVC
Format/Info      : High Efficiency Video Coding
Format profile       : Main [email protected]@High
HDR format       : SMPTE ST 2086, HDR10 compatible
Codec ID         : V_MPEGH/ISO/HEVC
Duration         : 2 h 10 min
Bit rate         : 24.0 Mb/s
Width        : 3 832 pixels
Height       : 1 600 pixels
Display aspect ratio     : 2.40:1
Frame rate mode      : Constant
Frame rate       : 23.976 FPS
Color space      : YUV
Chroma subsampling       : 4:2:0 (Type 2)
Bit depth        : 10 bits
Bits/(Pixel*Frame)       : 0.163
Stream size      : 21.9 GiB (97%)
Default          : Yes
Forced       : No
Color range      : Limited
Color primaries      : BT.2020
Transfer characteristics     : PQ
Matrix coefficients      : BT.2020 non-constant
Mastering display color primaries    : BT.2020
Mastering display luminance      : min: 0.0050 cd/m2, max: 1000 cd/m2
Maximum Content Light Level      : 958 cd/m2
Maximum Frame-Average Light Level    : 602 cd/m2

Audio
ID         3. 你们的恋爱不成功,全面的看,这是最好的结果。下意识里,你其实也希望有这样的结局。  : 2
Format       : E-AC-3 JOC
Format/Info      : Enhanced AC-3 with Joint Object Coding
Commercial name      : Dolby Digital Plus with Dolby Atmos
Codec ID         : A_EAC3
Duration         : 2 h 10 min
Bit rate mode        : Constant
Bit rate         : 768 kb/s
Channel(s)       : 6 channels
Channel layout       : L R C LFE Ls Rs
Sampling rate        : 48.0 kHz
Frame rate       : 31.250 FPS (1536 SPF)
Compression mode     : Lossy
Stream size      : 716 MiB (3%)
Language         : English
Service kind         : Complete Main
Default          : Yes
Forced       : No
Complexity index     : 16
Number of dynamic objects    : 15
Bed channel count        : 1 channel
Bed channel configuration    : LFE

Text #1
ID           : 3
Format       : UTF-8
Codec ID         : S_TEXT/UTF8
Codec ID/Info        : UTF-8 Plain Text
Duration         : 2 h 0 min
Bit rate         : 69 b/s
Count of elements        : 2261
Stream size      : 61.8 KiB (0%)
Title        : English
Language         : English
Default          : Yes
Forced       : No

Text #2
ID           : 4
Format       : UTF-8
Codec ID         : S_TEXT/UTF8
Codec ID/Info        : UTF-8 Plain Text
Duration         : 2 h 0 min
Bit rate         : 72 b/s
Count of elements        : 2266
Stream size      : 64.1 KiB (0%)
Title        : English [SDH]
Language         : English
Default          : No
Forced       : No

Text #3
ID           : 5
Format       : UTF-8
Codec ID         : S_TEXT/UTF8
Codec ID/Info        : UTF-8 Plain Text
Duration         : 2 h 10 min
Bit rate         : 51 b/s
Count of elements        : 1776
Stream size      : 49.3 KiB (0%)
Title        : French
Language         : French
Default          : No
Forced       : No

Text #4
ID           : 6
Format       : UTF-8
Codec ID         : S_TEXT/UTF8
Codec ID/Info        : UTF-8 Plain Text
Duration         : 2 h 0 min
Bit rate         : 72 b/s
Count of elements        : 1686
Stream size      : 64.1 KiB (0%)
Title        : French [SDH]
Language         : French
Default          : No
Forced       : No

    

悠悠MP4_MP4电影下载_月球陨落 Moonfall.2022.2160p.WEB-DL.x265.10bit.HDR.DDP5.1.Atmos-NOGRP 22.57 GB
悠悠MP4_MP4电影下载_月球陨落 Moonfall.2022.2160p.WEB-DL.x265.10bit.HDR.DDP5.1.Atmos-NOGRP 22.57 GB
悠悠MP4_MP4电影下载_月球陨落 Moonfall.2022.2160p.WEB-DL.x265.10bit.HDR.DDP5.1.Atmos-NOGRP 22.57 GB

磁力链接


    
    蝶恋花 欧阳修故人入我梦,明我长相忆。电影下载,MP4下载,高清电影,电影排行榜,电影票房19、Zeal without knowledge is a runaway horse.

热门电影下载

最新电影下载

电影票房排行榜