电影下载

家庭法则 Family.Law.2006.SPANISH.1080p.WEBRip.x265-VXT 1.56 GB

家庭法则 Family.Law.2006.SPANISH.1080p.WEBRip.x265-VXT 1.56 GB

  • 版本:高清完整版
  • 发布:

电影介绍

    家庭法则 Family.Law.2006.SPANISH.1080p.WEBRip.x265-VXT 1.56 GB错分秒必争落百花争艳有致不要去想它,感受它就通了。人生有所求,求而得之,我之所喜;求而不得,我亦无忧。若如此,人生哪里还会有什么烦恼可言?1. It is important for everyone to learn English well in our rapidly developing world.朱熹313.即以其人之道,还治其人之身。《中庸集注》

    悠悠MP4_MP4电影下载_家庭法则 Family.Law.2006.SPANISH.1080p.WEBRip.x265-VXT 1.56 GB

◎片  名 家庭法则 Derecho de familia / 家法 / Family Law
◎年  代 2006
◎产  地 阿根廷 / 意大利 / 西班牙 / 法国
◎类  别 剧情 / 喜剧
◎语  言 西班牙语 / 希伯来语
◎上映日期 2006-02-10
◎IMDb评分  6.8/10 from 1497 users
◎IMDb链接  https://www.imdb.com/title/tt0474622/
◎豆瓣评分 6.8/10 from 80 users
◎豆瓣链接 https://movie.douban.com/subject/1948749/
◎片  长 102 分钟
◎导  演 丹尼尔·布尔曼 Daniel Burman
◎编  剧 丹尼尔·布尔曼 Daniel Burman
◎主  演 Adriana Aizemberg Adriana Aizemberg
       丹尼尔·亨德尔 Daniel Hendler
       Arturo Goetz Arturo Goetz

◎简  介

  一大段画外音由法学教授皮尔曼Perelman (丹尼尔·亨德尔饰演)道出,描述了自己父亲大皮尔曼Perelman Sr.(奥特鲁·高茨饰)的日常生活,他也是一名律师。他把父亲的形象刻画成一个极其严肃的人,而且自己似乎也正是如此。诺丽塔Norita(Adriana Aizanberg饰)是皮尔曼忠心耿耿的秘书,这是唯一一个他可以坦诚相对的人。                                    
      儿子皮尔曼的课程出现了轻微的混乱,原因是在公众面前他个人的感情出了问题。他的学生中有一个是普拉提教练桑德拉Sandra(Julieta Diaz饰演),教授一心想和她结婚。为了她,皮尔曼开始练习普拉提。终于有一个大好的机会降临了,桑德拉遇到了法律上的麻烦,皮尔曼帮忙打赢了这场官司,只是没有告诉桑德拉他的事情必须由父亲来决定。                                    
      当我们再次看到皮尔曼和桑德拉的时候,他们已经结婚了而且还有一个两岁的儿子加斯通Gaston(伊洛·布尔曼饰演)。接下来发生了一件有趣却也很尴尬的事情,他忘记了父亲65岁的生日。影片集中展现了他和父亲的关系,父亲总是旁敲侧击地给他暗示,但他依旧没有想起来。就在桑德拉教授普拉提课程的时候,皮尔曼独自在家照顾加斯通。
    


    
Video
ID           : 1
Format       : HEVC
Format/Info      : High Efficiency Video Coding
Format profile       : Main [email protected]@Main
Codec ID         : hev1
Codec ID/Info        : High Efficiency Video Coding
Duration         : 1 h 40 min
Bit rate         : 2 000 kb/s
Width        : 1 920 pixels
Height       : 1 040 pixels
Display aspect ratio     : 1.85:1
Frame rate mode      : Constant
Frame rate       : 23.976 (24000/1001) FPS
Color space      : YUV
Chroma subsampling       : 4:2:0
Bit depth        : 10 bits
Bits/(Pixel*Frame)       : 0.042
Stream size      : 1.40 GiB (90%)
Writing library      : x265 3.3+4-rarbg-30eb4de83092:[Linux][GCC 8.3.1][64 bit] 10bit
Encoding settings        : cpuid=1111039 / frame-threads=4 / wpp / no-pmode / no-pme / no-psnr / no-ssim / log-level=2 / input-csp=1 / input-res=1920x1040 / interlace=0 / total-frames=0 / level-idc=0 / high-tier=1 / uhd-bd=0 / ref=4 / no-allow-non-conformance / no-repeat-headers / annexb / no-aud / no-hrd / info / hash=0 / no-temporal-layers / open-gop / min-keyint=23 / keyint=250 / gop-lookahead=0 / bframes=4 / b-adapt=2 / b-pyramid / bframe-bias=0 / rc-lookahead=25 / lookahead-slices=4 / scenecut=40 / hist-scenecut=0 / radl=0 / no-splice / no-intra-refresh / ctu=64 / min-cu-size=8 / rect / no-amp / max-tu-size=32 / tu-inter-depth=1 / tu-intra-depth=1 / limit-tu=0 / rdoq-level=2 / dynamic-rd=0.00 / no-ssim-rd / signhide / no-tskip / nr-intra=0 / nr-inter=0 / no-constrained-intra / strong-intra-smoothing / max-merge=3 / limit-refs=3 / limit-modes / me=3 / subme=3 / merange=57 / temporal-mvp / no-frame-dup / no-hme / weightp / no-weightb / no-analyze-src-pics / deblock=0:0 / no-sao / no-sao-non-deblock / rd=4 / selective-sao=0 / no-early-skip / rskip / no-fast-intra / no-tskip-fast / no-cu-lossless / no-b-intra / no-splitrd-skip / rdpenalty=0 / psy-rd=2.00 / psy-rdoq=1.00 / no-rd-refine / no-lossless / cbqpoffs=0 / crqpoffs=0 / rc=abr / bitrate=2000 / qcomp=0.60 / qpstep=4 / stats-write=0 / stats-read=2 / cplxblur=20.0 / qblur=0.5 / ipratio=1.40 / pbratio=1.30 / aq-mode=3 / aq-strength=1.00 / cutree / zone-count=0 / no-strict-cbr / qg-size=32 / no-rc-grain / qpmax=69 / qpmin=0 / no-const-vbv / sar=1 / overscan=0 / videoformat=5 / range=0 / colorprim=2 / transfer=2 / colormatrix=2 / chromaloc=0 / display-window=0 / cll=0,0 / min-luma=0 / max-luma=1023 / log2-max-poc-lsb=8 / vui-timing-info / vui-hrd-info / slices=1 / no-opt-qp-pps / no-opt-ref-list-length-pps / no-multi-pass-opt-rps / scenecut-bias=0.05 / hist-threshold=0.01 / no-opt-cu-delta-qp / no-aq-motion / no-hdr10 / no-hdr10-opt / no-dhdr10-opt / no-idr-recovery-sei / analysis-reuse-l垂首丧气拼音:chuí shǒu sàng qì释义:形容因失败或不顺利而情绪低落、萎蘼不振的样子。同垂头丧气”。出处:《水浒传》第九五回乔道清生平逞弄神通,今日垂首丧气,正是总教掬尽三江水,难洗今朝一面羞。”示例:[舟次]连不得志于有司,~,无以娱其老亲。★清·周亮工《送汪舟次游庐山序》evel=0 / analysis-save-reuse-level=0 / analysis-load-reuse-level=0 / scale-factor=0 / refine-intra=0 / refine-inter=0 / refine-mv=1 / refine-ctu-distortion=0 / no-limit-sao / ctu-info=0 / no-lowpass-dct / refine-analysis-type=0 / copy-pic=1 / max-ausize-factor=1.0 / no-dynamic-refine / no-single-sei / no-hevc-aq / no-svt / no-field / qp-adaptation-range=1.00 / no-scenecut-aware-qpconformance-window-offsets / right=0 / bottom=0
Encoded date         : UTC 2022-03-31 21:14:57
Tagged date      : UTC 2022-03-31 21:14:57
Codec configuration box      : hvcC

Audio
ID           : 2
Format       : AAC LC
Format/Info      : Advanced Audio Codec Low Complexity
Codec ID         : mp4a-40-2
Duration         : 1 h 40 min
Duration_LastFrame       : -11 ms
Bit rate mode        : Constant
Bit rate         : 224 kb/s
Channel(s)       : 6 channels
Channel layout       : C L R Ls Rs LFE
Sampling rate        : 48.0 kHz
Frame rate       : 46.875 FPS (1024 SPF)
Compression mode     : Lossy
Stream size      : 160 MiB (10%)
Language         : Spanish
Default          : Yes
Alternate group      : 1
Encoded date         : UTC 2022-03-31 21:14:57
Tagged date      : UTC 2022-03-31 21:14:57

    

悠悠MP4_MP4电影下载_家庭法则 Family.Law.2006.SPANISH.1080p.WEBRip.x265-VXT 1.56 GB
悠悠MP4_MP4电影下载_家庭法则 Family.Law.2006.SPANISH.1080p.WEBRip.x265-VXT 1.56 GB
悠悠MP4_MP4电影下载_家庭法则 Family.Law.2006.SPANISH.1080p.WEBRip.x265-VXT 1.56 GB

磁力链接


    
    阮郎归 秦观古来青史谁不见,今见功名胜古人。电影下载,MP4下载,高清电影,电影排行榜,电影票房To reverse (check / control) the trend (tendency) is not a light task (an easy job), and it requires (demands / involves / entails) a different state of main towards (attitude towards / outlook on)…

热门电影下载

最新电影下载

电影票房排行榜