电影下载

两杆大烟枪 Lock.Stock.and.Two.Smoking.Barrels.1998.1080p.BluRay.REMUX.VC-1.DTS-HD.MA.5.1-FGT 28.44 GB

两杆大烟枪 Lock.Stock.and.Two.Smoking.Barrels.1998.1080p.BluRay.REMUX.VC-1.DTS-HD.MA.5.1-FGT 28.44 GB

  • 版本:高清完整版
  • 发布:

电影介绍

    两杆大烟枪 Lock.Stock.and.Two.Smoking.Barrels.1998.1080p.BluRay.REMUX.VC-1.DTS-HD.MA.5.1-FGT 28.44 GB孤云野鹤发望而生畏奋图强17. 遇见靠的是缘分,相守靠的是用心,不是所有的相遇都是一场怦然心动,也不是所有的情缘都能相伴一生。以前的完美,越来越模糊;以前的时光,越来越凌乱。不是不想念,而是太感性怕忧伤了的眼睛;不是不怀念,而是不敢去触碰那回不去的以前。越来越多的人意识到遵守交通规则的重要性。236.千里莺啼绿映红,水村山郭酒旗风,南朝四百八十寺,多少楼台烟雨中。《江南春绝句》

    悠悠MP4_MP4电影下载_两杆大烟枪 Lock.Stock.and.Two.Smoking.Barrels.1998.1080p.BluRay.REMUX.VC-1.DTS-HD.MA.5.1-FGT 28.44 GB

◎片  名 两杆大烟枪 Lock, Stock and Two Smoking Barrels / 够姜四小强(港) / 两根枪管(台) / 两只老烟枪 / 魔高一丈 / 两杆老烟枪
◎年  代 1998
◎产  地 英国
◎类  别 剧情 / 喜剧 / 犯罪
◎语  言 英语
◎上映日期 1998-08-28(英国)
◎IMDb评分  8.2/10 from 570960 users
◎IMDb链接  https://www.imdb.com/title/tt0120735/
◎豆瓣评分 9.1/10 from 546785 users
◎豆瓣链接 https://movie.douban.com/subject/1293350/
◎片  长 107分钟 / 115分钟(导演剪辑版)
◎导  演 盖·里奇 Guy Ritchie
◎编  剧 盖·里奇 Guy Ritchie
◎主  演 杰森·弗莱明 Jason Flemyng
       德克斯特·弗莱彻 Dexter Fletcher
       尼克·莫兰 Nick Moran
       杰森·斯坦森 Jason Statham
       斯蒂文·麦金托什 Steven Mackintosh
       斯汀 Sting
       维尼·琼斯 Vinnie Jones
       维克多·麦奎尔 Victor McGuire
       安德鲁·蒂曼 Andrew Tiernan
       马修·沃恩 Matthew Vaughn
       薇拉·黛 Vera Day
       弗兰克·哈珀 Frank Harper
       杰克·亚伯拉罕 Jake Abraham
       史蒂夫·斯威尼 Steve Sweeney
       罗尼·福克斯 Ronnie Fox
       丹尼·约翰-儒勒 Danny John-Jules
       阿兰·福德 Alan Ford
       瓦斯·布莱克伍德 Vas Blackwood
       Lenny McLean Lenny McLean
       尼古拉斯·罗尔 Nicholas Rowe
       P.H.莫里亚蒂 P.H. Moriarty
       斯蒂芬·马库斯 Stephen Marcus
       罗伯·布莱顿 Rob Brydon

◎简  介

  艾迪(尼克·莫伦)思维敏捷,是个玩牌高手。在三个好友的支持下,艾迪携巨资参加了黑社会的高额赌局,不想落入圈套,欠下50万的赌债。为了还清赌债,艾迪和朋友们绞尽脑汁,最终算计到一群毒贩身上,并为打劫购买了两杆老式烟枪。                                    
      不想这群不安分的毒贩,正惦念着他们毒品供应商的钱,并在同一天实施了打劫。在毒贩们费尽周折,把毒品供应商熨的整整齐齐的钱款拿到手后,艾迪他们幸运的坐享其成。可是他们不知道,这看似简单的抢劫案背后,更有厉害的角色参与其中。他们手里的两杆破烟枪也隐藏着不少故事。                                    
      在无知与莽撞中置身漩涡的他们能侥幸脱身么?笑料迭出的偶发事件里,穿插着小人物与大人物的辛酸幽默。

◎获奖情况

  第11届东京国际电影节 (1998)
  主竞赛单元 最佳影片(提名)
  盖·里奇主竞赛单元 最佳导演
  盖·里奇
    


    
Video
ID           : 1
ID in the original source medium     : 4113 (0x1011)
Format       : VC-1
Format profile       : Advanced@L3
Codec ID         : V_MS/VFW/FOURCC / WVC1
Codec ID/Hint        : Microsoft
Duration         : 1 h 47 min
Bit rate         : 31.4 Mb/s
Width        : 1 920 pixels
Height       : 1 080 pixels
Display aspect ratio     : 16:9
Frame rate mode      : Constant
Frame rate       : 23.976 (24000/1001) FPS
Color space      : YUV
Chroma subsampling       : 4:2:0
Bit depth        : 8 bits
Scan type        : Progressive
Compression mode     : Lossy
Bits/(Pixel*Frame)       : 0.632
Stream size      : 23.6 GiB (83%)
Language         : English
Default          : No
Forced       : No
Original source medium       : Blu-ray

Audio #1
ID           : 2
ID in the original source medium     : 4352 (0x1100)
Format       : DTS XLL
Format/Info      : Digital Theater Systems
Commercial name      : DTS-HD Master Audio
Codec ID         : A_DTS
Duration         : 1 h 47 min
Bit rate mode        : Variable
Bit rate         : 4 085 kb/s
Channel(s)       : 6 channels
Channel layout       : C L R Ls Rs LFE
Sampling rate        : 48.0 kHz
Frame rate       : 93.750 FPS (512 SPF)
Bit depth        : 24 bits
Compression mode     : Lossless
Stream size      : 3.06 GiB (11%)
Title        : DTS-HD MA 5.1
Language         : English
Default          : Yes
Forced       : No
Original source medium       : Blu-ray

Audio #2
ID           : 3
ID in the original source medium     : 4353 (0x1101)
Format       : DTS
Format/Info      : Digital Theater Systems
Codec ID         : A_DTS
Duration         : 1 h 47 min
Bit rate mode        : Constant
Bit rate         : 768 kb/s
Channel(s)       : 6 channels
Channel layout       : C L R Ls Rs LFE
Sampling rate        : 48.0 kHz
Frame rate       : 93.750 FPS (512 SPF)
Bit depth        : 24 bits
Compression mode     : Lossy
Stream size      : 590 MiB (2%)
Title        : DTS 5.1
Language         : French
Default          : No
Forced       : No
Original source medium       : Blu-ray

Audio #3
ID           : 4
ID in the original source medium     : 4354 (0x1102)
Format       : DTS
Format/Info      : Digital Theater Systems
Codec ID         : A_DTS
Duration         : 1 h 47 min
Bit rate mode        : Constant
Bit rate         : 768 kb/s
Channel(s)       : 6 channels
Channel layout       : C L R Ls Rs LFE
Sampling rate        : 48.0 kHz
Frame rate       : 93.750 FPS (512 SPF)
Bit depth        : 24 bits
Compression mode     : Lossy
Stream size      : 590 MiB (2%)
Title        : DTS 5.1
Language         : German
Default          : No
Forced       : No
Original source medium       : Blu-ray

Audio #4
ID           : 5
ID in the original source medium     : 4355 (0x1103)
Format       : DTS
Format/Info      : Digital Theater Systems
Codec ID         : A_DTS
Duration         : 1 h 47 min
Bit rate mode        : Constant
Bit rate         : 768 kb/s
Channel(s)       : 6 channels
Channel layout       : C L R Ls Rs LFE
Sampling rate        : 48.0 kHz
Frame rate       : 93.750 FPS (512 SPF)
Bit depth        : 24 bits
Compression mode     : Lossy
Stream size      : 590 MiB (2%)
Title        : DTS 5.1
Language         : Spanish
Default          : No
Forced       : No
Original source medium       : Blu-ray

Text #1
ID           : 6
Format       : UTF-8
Codec ID         : S_TEXT/UTF8
Codec ID/Info        : UTF-8 Plain Text
Duration         : 1 h 42 min
Bit rate         : 69 b/s
Count of elements        : 1513
Stream size      : 52.3 KiB (0%)
Language         : English
Default          : Yes
Forced       : No

Text #2
ID           : 7
Format       : UTF-8
Codec ID         : S_TEXT/UTF8
Codec ID/Info        : UTF-8 Plain Text
Duration         : 1 h 42 min
Bit rate         : 71 b/s
Count of elements        : 1568
Stream size      : 53.2 KiB (0%)
Title        : SDH
Language         : English
Default          : No
Forced       : No

Text #3
ID           : 8
ID in the original source medium     : 4608 (0x1200)
Format       : PGS
Muxing mode      : zlib
Codec ID         : S_HDMV/PGS
Codec ID/Info        : Picture based subtitle format used on BDs/HD-DVDs
Duration         : 1 h 42 min
Bit rate         : 47.9 kb/s
Count of elements        : 3143
Stream size      : 35.0 MiB (0%)
Language         : English
Default          : No
Forced       : No
Original source medium       : Blu-ray

Text #4
ID           : 9
ID in the original source medium     : 4609 (0x1201)
Format       : PGS
Muxing mode      : zlib
Codec ID         : S_HDMV/PGS
Codec ID/Info        : Picture based subtitle format used on BDs/HD-DVDs
Duration         : 1 h 42 min
Bit rate         : 41.5 kb/s
Count of elements        : 2708
Stream size      : 30.3 MiB (0%)
Language         : Spanish
Default          : No
Forced       : No
Original source medium       : Blu-ray

Text #5
ID           : 10
ID in the original source medium     : 4610 (0x1202)
Format       : PGS
Muxing mode      : zlib
Codec ID         : S_HDMV/PGS
Codec ID/Info       翠竹黄花拼音:cuì zhú huáng huā释义:指眼前境物。出处:宋·释道原《景德传灯录·慧海禅师》迷人不知法身无象,应物现形,遂唤青青翠竹,总是法身;郁郁黄华,无非般若。黄华若是般若,般若即同无情;翠竹若是法身,法身即同草木。”示例:无 : Picture based subtitle format used on BDs/HD-DVDs
Duration         : 1 h 42 min
Bit rate         : 42.4 kb/s
Count of elements        : 2708
Stream size      : 31.0 MiB (0%)
Language         : French
Default          : No
Forced       : No
Original source medium       : Blu-ray

Text #6
ID           : 11
ID in the original source medium     : 4611 (0x1203)
Format       : PGS
Muxing mode      : zlib
Codec ID         : S_HDMV/PGS
Codec ID/Info        : Picture based subtitle format used on BDs/HD-DVDs
Duration         : 1 h 46 min
Bit rate         : 37.5 kb/s
Count of elements        : 2708
Stream size      : 28.6 MiB (0%)
Language         : French
Default          : No
Forced       : No
Original source medium       : Blu-ray

Text #7
ID           : 12
ID in the original source medium     : 4612 (0x1204)
Format       : PGS
Muxing mode      : zlib
Codec ID         : S_HDMV/PGS
Codec ID/Info        : Picture based subtitle format used on BDs/HD-DVDs
Duration         : 1 h 46 min
Bit rate         : 35.3 kb/s
Count of elements        : 2584
Stream size      : 26.9 MiB (0%)
Language         : German
Default          : No
Forced       : No
Original source medium       : Blu-ray

Text #8
ID           : 13
ID in the original source medium     : 4613 (0x1205)
Format       : PGS
Muxing mode      : zlib
Codec ID         : S_HDMV/PGS
Codec ID/Info        : Picture based subtitle format used on BDs/HD-DVDs
Duration         : 1 h 46 min
Bit rate         : 39.0 kb/s
Count of elements        : 2708
Stream size      : 29.8 MiB (0%)
Language         : Spanish
Default          : No
Forced       : No
Original source medium       : Blu-ray

Text #9
ID           : 14
ID in the original source medium     : 4614 (0x1206)
Format       : PGS
Muxing mode      : zlib
Codec ID         : S_HDMV/PGS
Codec ID/Info        : Picture based subtitle format used on BDs/HD-DVDs
Duration         : 1 h 46 min
Bit rate         : 36.1 kb/s
Count of elements        : 2708
Stream size      : 27.5 MiB (0%)
Language         : Dutch
Default          : No
Forced       : No
Original source medium       : Blu-ray

Menu
00:00:00.000         : en:Chapter 01
00:07:57.768         : en:Chapter 02
00:12:36.464         : en:Chapter 03
00:18:01.163         : en:Chapter 04
00:24:43.690         : en:Chapter 05
00:30:59.566         : en:Chapter 06
00:36:26.976         : en:Chapter 07
00:40:04.777         : en:Chapter 08
00:45:37.651         : en:Chapter 09
00:51:30.545         : en:Chapter 10
00:53:15.692         : en:Chapter 11
01:03:14.707         : en:Chapter 12
01:08:25.684         : en:Chapter 13
01:14:23.250         : en:Chapter 14
01:19:42.652         : en:Chapter 15
01:30:50.611         : en:Chapter 16
01:35:10.496         : en:Chapter 17
01:43:18.483         : en:Chapter 18

    

悠悠MP4_MP4电影下载_两杆大烟枪 Lock.Stock.and.Two.Smoking.Barrels.1998.1080p.BluRay.REMUX.VC-1.DTS-HD.MA.5.1-FGT 28.44 GB
悠悠MP4_MP4电影下载_两杆大烟枪 Lock.Stock.and.Two.Smoking.Barrels.1998.1080p.BluRay.REMUX.VC-1.DTS-HD.MA.5.1-FGT 28.44 GB
悠悠MP4_MP4电影下载_两杆大烟枪 Lock.Stock.and.Two.Smoking.Barrels.1998.1080p.BluRay.REMUX.VC-1.DTS-HD.MA.5.1-FGT 28.44 GB

磁力链接


    
    昼闲度,因甚天也悭春,轻阴便成雨?绿暗长亭,归梦趁风絮。有情花影阑干,莺声门径,解留我霎时凝伫。北土非吾愿,东林怀我师。电影下载,MP4下载,高清电影,电影排行榜,电影票房Started at the turn of the century, 3M ( a giant American company) has been growing at a healthy rate of about 10 percent a year and it boasts of having 45,000 products on the market.

热门电影下载

最新电影下载

电影票房排行榜