电影下载

乱世佳人 Gone.with.the.Wind.1939.1080p.BluRay.REMUX.VC-1.DTS-HD.MA.TrueHD.5.1-FGT 39.30 GB

乱世佳人 Gone.with.the.Wind.1939.1080p.BluRay.REMUX.VC-1.DTS-HD.MA.TrueHD.5.1-FGT 39.30 GB

  • 版本:高清完整版
  • 发布:

电影介绍

    乱世佳人 Gone.with.the.Wind.1939.1080p.BluRay.REMUX.VC-1.DTS-HD.MA.TrueHD.5.1-FGT 39.30 GB冰鸟语花大雪纷飞香封雪盖情感,在梦幻意境里淡看,释怀,安静,人无千日好,花无百日红,完美永存于臆念,不存于现实。90. More and more people are aware that it is important to obey the traffic rules.《左传》24.言之无文,行而不远。

    悠悠MP4_MP4电影下载_乱世佳人 Gone.with.the.Wind.1939.1080p.BluRay.REMUX.VC-1.DTS-HD.MA.TrueHD.5.1-FGT 39.30 GB

◎片  名 乱世佳人 Gone with the Wind / 飘
◎年  代 1939
◎产  地 美国
◎类  别 剧情 / 爱情 / 历史 / 战争
◎语  言 英语
◎上映日期 1939-12-15(亚特兰大首映) / 1940-01-17(美国)
◎IMDb评分  8.2/10 from 310147 users
◎IMDb链接  https://www.imdb.com/title/tt0031381/
◎豆瓣评分 9.3/10 from 628752 users
◎豆瓣链接 https://movie.douban.com/subject/1300267/
◎片  长 238分钟 / 234分钟
◎导  演 维克多·弗莱明 Victor Fleming
       乔治·库克 George Cukor
       山姆·伍德 Sam Wood
◎编  剧 玛格丽特·米歇尔 Margaret Mitchell
       西德尼·霍华德 Sidney Howard
       奥利弗·H·P·加勒特 Oliver H.P. Garrett
       本·赫克特 Ben Hecht
       乔·斯沃林 Jo Swerling
       约翰·范·德鲁登 John Van Druten
◎主  演 费雯·丽 Vivien Leigh
       克拉克·盖博 Clark Gable
       奥利维娅·德哈维兰 Olivia de Havilland
       托马斯·米切尔 Thomas Mitchell
       芭芭拉·欧内尔 Barbara O'Neil
       伊夫林·凯耶斯 Evelyn Keyes
       安·卢瑟福德 Ann Rutherford
       乔治·里弗斯 George Reeves
       弗莱德·克莱恩 Fred Crane
       海蒂·麦克丹尼尔斯 Hattie McDaniel
       奥斯卡·波尔克 Oscar Polk
       巴特弗莱·麦昆 Butterfly McQueen
       维克托·乔里 Victor Jory
       埃弗雷特·布朗 Everett Brown
       霍华德·C·希克曼 Howard C. Hickman
       艾丽西亚·瑞特 Alicia Rhett
       莱斯利·霍华德 Leslie Howard
       兰德·布鲁克斯 Rand Brooks
       卡洛尔·奈 Carroll Nye
       劳拉·霍普·克鲁斯 Laura Hope Crews
       埃迪·安德森 Eddie 'Rochester' Anderson
       哈里·达文波特 Harry Davenport
       利昂娜·罗伯特 Leona Roberts
       简·达威尔 Jane Darwell
       欧娜·满森 Ona Munson
       保罗·赫斯特 Paul Hurst
       伊莎贝尔·朱尔 Isabel Jewell
       卡米·金·肯伦 Cammie King Conlon
       艾瑞克·林登 Eric Linden
       J·M·克里根 J.M. Kerrigan
       沃德·邦德 Ward Bond
       莉莲·肯布尔-库珀 Lillian Kemble-Cooper
       李守贞 Shouzhen Li
       唐烨 Ye Tang
       吴文伦 Wenlun Wu
       查曼若 Manruo Zha
       彭河 He Peng

◎简  介

  美国南北战争前夕,南方农场塔拉庄园的千金斯嘉丽(费雯·丽 Vivien Leigh 饰)爱上了另一个农场主的儿子艾希礼(莱斯利·霍华德 Leslie Howard 饰),遭到了拒绝,为了报复,她嫁给了自己不爱的男人,艾希礼妻子梅兰妮(奥利维娅·德哈维兰 Olivia de Havilland 饰)的弟弟查尔斯。                                    
      战争期间,斯嘉丽成为寡妇,失去母亲,挑起生活的重担, 不再是当初的千金小姐;战争结束后,她又两度为人妻,嫁给了爱她多年的投机商人瑞德(克拉克·盖博 Clark Gable 饰)。                                    
      然而,纵使经历了生活的艰苦,斯嘉丽对艾希礼的感情仍然没有改变。艾希礼妻子梅兰妮的去世,给了斯嘉丽一个机会,一边是深爱自己的丈夫瑞德,一边是心心念念多年的艾希礼?斯嘉丽会给自己怎样一个不一样的明天?

◎获奖情况

  第12届奥斯卡金像奖 (1940)
  最佳影片
  最佳导演
  维克多·弗莱明最佳男主角(提名)
  克拉克·盖博最佳女主角
  费雯·丽最佳女配角
  海蒂·麦克丹尼尔斯最佳女配角(提名)
  奥利维娅·德哈维兰最佳编剧
  西德尼·霍华德彩色片最佳摄影
  雷·伦纳汉 / 欧内斯特·哈勒最佳剪辑
  哈尔·C·克尔恩 / 詹姆斯·E·纽康姆最佳特效(提名)
  杰克·科斯格罗夫 / 亚瑟·约翰斯 / 弗雷德·阿尔宾最佳录音(提名)
  托马斯·T·莫尔顿最佳艺术指导
  莱尔·R·惠勒最佳原创配乐(提名)
  马克思·斯坦纳终身成就奖
  威廉·卡梅伦·孟席斯科技成就奖
  R·D·马斯格雷夫
    


    
Video
ID           : 1
ID in the original source medium     : 4113 (0x1011)
Format       : VC-1
Format profile       : Advanced@L3
Codec ID         : V_MS/VFW/FOURCC / WVC1
Codec ID/Hint        : Microsoft
Duration         : 3 h 53 min
Bit rate         : 18.4 Mb/s
Width        : 1 920 pixels
Height       : 1 080 pixels
Display aspect ratio     : 16:9
Frame rate mode      : Constant
Frame rate       : 23.976 (24000/1001) FPS
Color space      : YUV
Chroma subsampling       : 4:2:0
Bit depth        : 8 bits
Scan type        : Progressive
Compression mode     : Lossy
Bits/(Pixel*Frame)       : 0.370
Stream size      : 30.0 GiB (76%)
Language         : English
Default          : No
Forced       : No
Original source medium       : Blu-ray

Audio #1
ID           : 2
ID in the original source medium     : 4352 (0x1100)
Format       : MLP FBA
Format/Info      : Meridian Lossless Packing FBA
Commercial name      : Dolby TrueHD
Codec ID         : A_TRUEHD
Duration         : 3 h 53 min
Bit rate mode        : Variable
Bit rate         : 1 250 kb/s
Maximum bit rate     : 1 917 kb/s
Channel(s)       : 6 channels
Channel layout       : L R C LFE Ls Rs
Sampling rate        : 48.0 kHz
Frame rate       : 1 200.000 FPS (40 SPF)
Bit depth        : 24 bits
Compression mode     : Lossless
Stream size      : 2.04 GiB (5%)
Title        : TrueHD 5.1
Language         : English
Default          : Yes
Forced       : No
Original source medium       : Blu-ray

Audio #2
ID           : 3
Format       : DTS XLL
Format/Info      : Digital Theater Systems
Commercial name      : DTS-HD Master Audio
Codec ID         : A_DTS
Duration         : 3 h 53 min
Bit rate mode        : Variable
Bit rate         : 2 108 kb/s
Channel(s)       : 6 channels
Channel layout       : C L R Ls Rs LFE
Sampling rate        : 48.0 kHz
Frame rate       : 93.750 FPS (512 SPF)
Bit depth        : 16 bits
Compression mode     : Lossless
Stream size      : 3.43 GiB (9%)
Title        : DTS-HD MA 5.1
Language         : English
Default          : No
Forced       : No

Audio #3
ID           : 4
ID in the original source medium     : 4352 (0x1100)
Format       : AC-3
Format/Info      : Audio Coding 3
Commercial name      : Dolby Digital
Codec ID         : A_AC3
Duration         : 3 h 53 min
Bit rate mode        : Constant
Bit rate         : 640 kb/s
Channel(s)       : 6 channels
Channel layout       : L R C LFE Ls Rs
Sampling rate        : 48.0 kHz
Frame rate       : 31.250 FPS (1536 SPF)
Compression mode     : Lossy
Stream size      : 1.04 GiB (3%)
Title        : DD 5.1
Language         : English
Service kind         : Complete Main
Default          : No
Forced       : No
Original source medium       : Blu-ray

Audio #4
ID           : 5
ID in the original source medium     : 4353 (0x1101)
Format       : AC-3
Format/Info      : Audio Coding 3
Commercial name      : Dolby Digital
Codec ID         : A_AC3
Duration         : 3 h 53 min
Bit rate mode        : Constant
Bit rate         : 192 kb/s
Channel(s)       : 1 channel
Channel layout       : C
Sampling rate        : 48.0 kHz
Frame rate       : 31.250 FPS (1536 SPF)
Compression mode     : Lossy
Stream size      : 320 MiB (1%)
Title        : DD 1.0
Language         : Czech
Service kind         : Complete Main
Default          : No
Forced       : No
Original source medium       : Blu-ray

Audio #5
ID           : 6
ID in the original source medium     : 4354 (0x1102)
Format       : AC-3
Format/Info      : Audio Coding 3
Commercial name      : Dolby Digital
Codec ID         : A_AC3
Duration         : 3 h 53 min
Bit rate mode        : Constant
Bit rate         : 192 kb/s
Channel(s)       : 1 channel
Channel layout       : C
Sampling rate        : 48.0 kHz
Frame rate       : 31.250 FPS (1536 SPF)
Compression mode     : Lossy
Stream size      : 320 MiB (1%)
Title        : DD 1.0
Language         : Hungarian
Service kind         : Complete Main
Default          : No
Forced       : No
Original source medium       : Blu-ray

Audio #6
ID           : 7
ID in the original source medium     : 4355 (0x1103)
Format       : AC-3
Format/Info      : Audio Coding 3
Commercial name      : Dolby Digital
Codec ID         : A_AC3
Duration         : 3 h 53 min
Bit rate mode        : Constant
Bit rate         : 192 kb/s
Channel(s)       : 1 channel
Channel layout       : C
Sampling rate        : 48.0 kHz
Frame rate       : 31.250 FPS (1536 SPF)
Compression mode     : Lossy
Stream size      : 320 MiB (1%)
Title        : DD 1.0
Language         : Polish
Service kind         : Complete Main
Default          : No
Forced       : No
Original source medium       : Blu-ray

Audio #7
ID           : 8
ID in the original source medium     : 4356 (0x1104)
Format       : AC-3
Format/Info      : Audio Coding 3
Commercial name      : Dolby Digital
Codec ID         : A_AC3
Duration         : 3 h 53 min
Bit rate mode        : Constant
Bit rate         : 384 kb/s
Channel(s)       : 6 channels
Channel layout       : L R C LFE Ls Rs
Sampling rate        : 48.0 kHz
Frame rate       : 31.250 FPS (1536 SPF)
Compression mode     : Lossy
Stream size      : 641 MiB (2%)
Title        : DD 5.1
Language         : Russian
Service kind         : Complete Main
Default          : No
Forced       : No
Original source medium       : Blu-ray

Audio #8
ID           : 9
ID in the original source medium     : 4357 (0x1105)
Format       : AC-3
Format/Info      : Audio Coding 3
Commercial name      : Dolby Digital
Format settings      : Dolby Surround
Codec ID         : A_AC3
Duration         : 3 h 53 min
Bit rate mode        : Constant
Bit rate         : 192 kb/s
Channel(s)       : 2 channels
Channel layout       : L R
Sampling rate        : 48.0 kHz
Frame rate       : 31.250 FPS (1536 SPF)
Compression mode     : Lossy
Stream size      : 320 MiB (1%)
Title        : DD 2.0
Language         : English
Service kind         : Complete Main
Default          : No
Forced       : No
Original source medium       : Blu-ray

Audio #9
ID           : 10
ID in the original source medium     : 4358 (0x1106)
Format       : AC-3
Format/Info      : Audio Coding 3
Commercial name      : Dolby Digital
Codec ID         : A_AC3
Duration         : 3 h 53 min
Bit rate mode        : Constant
Bit rate         : 192 kb/s
Channel(s)       : 1 channel
Channel layout       : C
Sampling rate        : 48.0 kHz
Frame rate       : 31.250 FPS (1536 SPF)
Compression mode     : Lossy
Stream size      : 320 MiB (1%)
Title        : DD 1.0
Language         : English
Service kind         : Complete Main
Default          : No
Forced       : No
Original source medium       : Blu-ray

Text #1
ID           : 11
Format       : UTF-8
Codec ID         : S_TEXT/UTF8
Codec ID/Info        : UTF-8 Plain Text
Duration         : 3 h 41 min
Bit rate         : 74 b/s
Count of elements        : 3026
Stream size      : 121 KiB (0%)
Language         : English
Default          : Yes
Forced       : No

Text #2
ID           : 12
Format       : UTF-8
Codec ID         : S_TEXT/UTF8
Codec ID/Info        : UTF-8 Plain Text
Duration         : 3 h 46 min
Bit rate         : 73 b/s
Count of elements        : 3096
Stream size      : 122 KiB (0%)
Title        : SDH
Language         : English
Default          杯弓市虎拼音:bēi gōng shì hǔ释义:指捕风捉影,疑虑重重,自相惊扰。参见杯弓蛇影”、三人成虎”。出处:詧眖《学界风潮记·天津商学界之活动》同时传来上海有罢市之说,以致杯弓市虎,危机伺伏,人心恐惶,险状万分。”示例:无: No
Forced       : No

Text #3
ID           : 13
ID in the original source medium     : 4608 (0x1200)
Format       : PGS
Muxing mode      : zlib
Codec ID         : S_HDMV/PGS
Codec ID/Info        : Picture based subtitle format used on BDs/HD-DVDs
Duration         : 3 h 46 min
Bit rate         : 40.3 kb/s
Count of elements        : 6292
Stream size      : 65.2 MiB (0%)
Language         : English
Default          : No
Forced       : No
Original source medium       : Blu-ray

Text #4
ID           : 14
ID in the original source medium     : 4609 (0x1201)
Format       : PGS
Muxing mode      : zlib
Codec ID         : S_HDMV/PGS
Codec ID/Info        : Picture based subtitle format used on BDs/HD-DVDs
Duration         : 3 h 53 min
Bit rate         : 21.5 kb/s
Count of elements        : 5756
Stream size      : 35.8 MiB (0%)
Language         : Arabic
Default          : No
Forced       : No
Original source medium       : Blu-ray

Text #5
ID           : 15
ID in the original source medium     : 4610 (0x1202)
Format       : PGS
Muxing mode      : zlib
Codec ID         : S_HDMV/PGS
Codec ID/Info        : Picture based subtitle format used on BDs/HD-DVDs
Duration         : 3 h 53 min
Bit rate         : 36.7 kb/s
Count of elements        : 6054
Stream size      : 61.1 MiB (0%)
Language         : Bulgarian
Default          : No
Forced       : No
Original source medium       : Blu-ray

Text #6
ID           : 16
ID in the original source medium     : 4611 (0x1203)
Format       : PGS
Muxing mode      : zlib
Codec ID         : S_HDMV/PGS
Codec ID/Info        : Picture based subtitle format used on BDs/HD-DVDs
Duration         : 3 h 53 min
Bit rate         : 30.8 kb/s
Count of elements        : 5912
Stream size      : 51.4 MiB (0%)
Language         : Croatian
Default          : No
Forced       : No
Original source medium       : Blu-ray

Text #7
ID           : 17
ID in the original source medium     : 4612 (0x1204)
Format       : PGS
Muxing mode      : zlib
Codec ID         : S_HDMV/PGS
Codec ID/Info        : Picture based subtitle format used on BDs/HD-DVDs
Duration         : 3 h 53 min
Bit rate         : 26.5 kb/s
Count of elements        : 6014
Stream size      : 44.2 MiB (0%)
Language         : Czech
Default          : No
Forced       : No
Original source medium       : Blu-ray

Text #8
ID           : 18
ID in the original source medium     : 4613 (0x1205)
Format       : PGS
Muxing mode      : zlib
Codec ID         : S_HDMV/PGS
Codec ID/Info        : Picture based subtitle format used on BDs/HD-DVDs
Duration         : 3 h 53 min
Bit rate         : 29.9 kb/s
Count of elements        : 4198
Stream size      : 49.9 MiB (0%)
Language         : Estonian
Default          : No
Forced       : No
Original source medium       : Blu-ray

Text #9
ID           : 19
ID in the original source medium     : 4614 (0x1206)
Format       : PGS
Muxing mode      : zlib
Codec ID         : S_HDMV/PGS
Codec ID/Info        : Picture based subtitle format used on BDs/HD-DVDs
Duration         : 3 h 53 min
Bit rate         : 30.2 kb/s
Count of elements        : 5490
Stream size      : 50.3 MiB (0%)
Language         : Greek
Default          : No
Forced       : No
Original source medium       : Blu-ray

Text #10
ID           : 20
ID in the original source medium     : 4615 (0x1207)
Format       : PGS
Muxing mode      : zlib
Codec ID         : S_HDMV/PGS
Codec ID/Info        : Picture based subtitle format used on BDs/HD-DVDs
Duration         : 3 h 53 min
Bit rate         : 26.4 kb/s
Count of elements        : 5972
Stream size      : 44.0 MiB (0%)
Language         : Hebrew
Default          : No
Forced       : No
Original source medium       : Blu-ray

Text #11
ID           : 21
ID in the original source medium     : 4616 (0x1208)
Format       : PGS
Muxing mode      : zlib
Codec ID         : S_HDMV/PGS
Codec ID/Info        : Picture based subtitle format used on BDs/HD-DVDs
Duration         : 3 h 53 min
Bit rate         : 31.6 kb/s
Count of elements        : 6064
Stream size      : 52.7 MiB (0%)
Language         : Hungarian
Default          : No
Forced       : No
Original source medium       : Blu-ray

Text #12
ID           : 22
ID in the original source medium     : 4617 (0x1209)
Format       : PGS
Muxing mode      : zlib
Codec ID         : S_HDMV/PGS
Codec ID/Info        : Picture based subtitle format used on BDs/HD-DVDs
Duration         : 3 h 53 min
Bit rate         : 38.0 kb/s
Count of elements        : 6056
Stream size      : 63.3 MiB (0%)
Language         : Icelandic
Default          : No
Forced       : No
Original source medium       : Blu-ray

Text #13
ID           : 23
ID in the original source medium     : 4618 (0x120A)
Format       : PGS
Muxing mode      : zlib
Codec ID         : S_HDMV/PGS
Codec ID/Info        : Picture based subtitle format used on BDs/HD-DVDs
Duration         : 3 h 53 min
Bit rate         : 37.5 kb/s
Count of elements        : 5960
Stream size      : 62.6 MiB (0%)
Language         : Latvian
Default          : No
Forced       : No
Original source medium       : Blu-ray

Text #14
ID           : 24
ID in the original source medium     : 4619 (0x120B)
Format       : PGS
Muxing mode      : zlib
Codec ID         : S_HDMV/PGS
Codec ID/Info        : Picture based subtitle format used on BDs/HD-DVDs
Duration         : 3 h 53 min
Bit rate         : 34.0 kb/s
Count of elements        : 6054
Stream size      : 56.6 MiB (0%)
Language         : Lithuanian
Default          : No
Forced       : No
Original source medium       : Blu-ray

Text #15
ID           : 25
ID in the original source medium     : 4620 (0x120C)
Format       : PGS
Muxing mode      : zlib
Codec ID         : S_HDMV/PGS
Codec ID/Info        : Picture based subtitle format used on BDs/HD-DVDs
Duration         : 3 h 53 min
Bit rate         : 31.2 kb/s
Count of elements        : 6004
Stream size      : 52.0 MiB (0%)
Language         : Polish
Default          : No
Forced       : No
Original source medium       : Blu-ray

Text #16
ID           : 26
ID in the original source medium     : 4621 (0x120D)
Format       : PGS
Muxing mode      : zlib
Codec ID         : S_HDMV/PGS
Codec ID/Info        : Picture based subtitle format used on BDs/HD-DVDs
Duration         : 3 h 53 min
Bit rate         : 36.8 kb/s
Count of elements        : 5964
Stream size      : 61.3 MiB (0%)
Language         : Portuguese
Default          : No
Forced       : No
Original source medium       : Blu-ray

Text #17
ID           : 27
ID in the original source medium     : 4622 (0x120E)
Format       : PGS
Muxing mode      : zlib
Codec ID         : S_HDMV/PGS
Codec ID/Info        : Picture based subtitle format used on BDs/HD-DVDs
Duration         : 3 h 53 min
Bit rate         : 35.7 kb/s
Count of elements        : 5888
Stream size      : 59.4 MiB (0%)
Language         : Romanian
Default          : No
Forced       : No
Original source medium       : Blu-ray

Text #18
ID           : 28
ID in the original source medium     : 4623 (0x120F)
Format       : PGS
Muxing mode      : zlib
Codec ID         : S_HDMV/PGS
Codec ID/Info        : Picture based subtitle format used on BDs/HD-DVDs
Duration         : 3 h 53 min
Bit rate         : 34.4 kb/s
Count of elements        : 6122
Stream size      : 57.4 MiB (0%)
Language         : Russian
Default          : No
Forced       : No
Original source medium       : Blu-ray

Text #19
ID           : 29
ID in the original source medium     : 4624 (0x1210)
Format       : PGS
Muxing mode      : zlib
Codec ID         : S_HDMV/PGS
Codec ID/Info        : Picture based subtitle format used on BDs/HD-DVDs
Duration         : 3 h 53 min
Bit rate         : 30.4 kb/s
Count of elements        : 5948
Stream size      : 50.6 MiB (0%)
Language         : Serbian
Default          : No
Forced       : No
Original source medium       : Blu-ray

Text #20
ID           : 30
ID in the original source medium     : 4625 (0x1211)
Format       : PGS
Muxing mode      : zlib
Codec ID         : S_HDMV/PGS
Codec ID/Info        : Picture based subtitle format used on BDs/HD-DVDs
Duration         : 3 h 53 min
Bit rate         : 30.5 kb/s
Count of elements        : 6040
Stream size      : 50.9 MiB (0%)
Language         : Slovenian
Default          : No
Forced       : No
Original source medium       : Blu-ray

Text #21
ID           : 31
ID in the original source medium     : 4626 (0x1212)
Format       : PGS
Muxing mode      : zlib
Codec ID         : S_HDMV/PGS
Codec ID/Info        : Picture based subtitle format used on BDs/HD-DVDs
Duration         : 3 h 46 min
Bit rate         : 37.6 kb/s
Count of elements        : 6236
Stream size      : 61.0 MiB (0%)
Language         : Thai
Default          : No
Forced       : No
Original source medium       : Blu-ray

Text #22
ID           : 32
ID in the original source medium     : 4627 (0x1213)
Format       : PGS
Muxing mode      : zlib
Codec ID         : S_HDMV/PGS
Codec ID/Info        : Picture based subtitle format used on BDs/HD-DVDs
Duration         : 3 h 53 min
Bit rate         : 34.1 kb/s
Count of elements        : 5910
Stream size      : 56.9 MiB (0%)
Language         : Turkish
Default          : No
Forced       : No
Original source medium       : Blu-ray

Text #23
ID           : 33
ID in the original source medium     : 4628 (0x1214)
Format       : PGS
Muxing mode      : zlib
Codec ID         : S_HDMV/PGS
Codec ID/Info        : Picture based subtitle format used on BDs/HD-DVDs
Duration         : 3 h 53 min
Bit rate         : 33.9 kb/s
Count of elements        : 6246
Stream size      : 56.5 MiB (0%)
Language         : Ukrainian
Default          : No
Forced       : No
Original source medium       : Blu-ray

Menu
00:00:00.000         : en:Chapter 01
00:02:36.156         : en:Chapter 02
00:06:46.906         : en:Chapter 03
00:09:38.744         : en:Chapter 04
00:15:25.299         : en:Chapter 05
00:17:53.655         : en:Chapter 06
00:21:42.134         : en:Chapter 07
00:25:46.878         : en:Chapter 08
00:28:35.004         : en:Chapter 09
00:32:34.953         : en:Chapter 10
00:35:39.262         : en:Chapter 11
00:38:09.662         : en:Chapter 12
00:42:22.248         : en:Chapter 13
00:46:02.551         : en:Chapter 14
00:48:47.090         : en:Chapter 15
00:52:02.160         : en:Chapter 16
00:55:26.323         : en:Chapter 17
00:58:42.769         : en:Chapter 18
01:01:42.448         : en:Chapter 19
01:04:45.756         : en:Chapter 20
01:10:41.820         : en:Chapter 21
01:14:50.444         : en:Chapter 22
01:17:06.580         : en:Chapter 23
01:18:53.979         : en:Chapter 24
01:23:06.564         : en:Chapter 25
01:27:39.671         : en:Chapter 26
01:31:47.126         : en:Chapter 27
01:34:58.234         : en:Chapter 28
01:38:03.127         : en:Chapter 29
01:41:59.154         : en:Chapter 30
01:44:12.955         : en:Chapter 31
01:48:12.486         : en:Chapter 32
01:49:42.951         : en:Chapter 33
01:52:41.463         : en:Chapter 34
01:57:31.210         : en:Chapter 35
02:01:43.129         : en:Chapter 36
02:03:47.294         : en:Chapter 37
02:09:19.877         : en:Chapter 38
02:11:21.206         : en:Chapter 39
02:14:24.389         : en:Chapter 40
02:19:39.829         : en:Chapter 41
02:25:18.501         : en:Chapter 42
02:29:54.402         : en:Chapter 43
02:32:42.695         : en:Chapter 44
02:37:26.645         : en:Chapter 45
02:42:47.466         : en:Chapter 46
02:46:00.533         : en:Chapter 47
02:53:12.215         : en:Chapter 48
02:57:13.664         : en:Chapter 49
03:00:25.147         : en:Chapter 50
03:05:08.847         : en:Chapter 51
03:08:46.940         : en:Chapter 52
03:12:17.317         : en:Chapter 53
03:14:08.428         : en:Chapter 54
03:18:52.921         : en:Chapter 55
03:24:13.908         : en:Chapter 56
03:29:55.583         : en:Chapter 57
03:32:26.358         : en:Chapter 58
03:35:29.708         : en:Chapter 59
03:39:29.489         : en:Chapter 60
03:41:43.248         : en:Chapter 61
03:46:43.131         : en:Chapter 62
03:48:56.764         : en:Chapter 63

    

悠悠MP4_MP4电影下载_乱世佳人 Gone.with.the.Wind.1939.1080p.BluRay.REMUX.VC-1.DTS-HD.MA.TrueHD.5.1-FGT 39.30 GB
悠悠MP4_MP4电影下载_乱世佳人 Gone.with.the.Wind.1939.1080p.BluRay.REMUX.VC-1.DTS-HD.MA.TrueHD.5.1-FGT 39.30 GB
悠悠MP4_MP4电影下载_乱世佳人 Gone.with.the.Wind.1939.1080p.BluRay.REMUX.VC-1.DTS-HD.MA.TrueHD.5.1-FGT 39.30 GB

磁力链接


    
    天边金掌露成霜,云随雁字长。 绿杯红袖趁重阳,人情似故乡。风急天高猿啸哀,渚清沙白鸟飞回。电影下载,MP4下载,高清电影,电影排行榜,电影票房The danger (problem / fact / truth / point) is that…

热门电影下载

最新电影下载

电影票房排行榜