电影下载

唐人街 Chinatown.1974.1080p.BluRay.REMUX.AVC.DTS-HD.MA.TrueHD.5.1-FGT 38.30 GB

唐人街 Chinatown.1974.1080p.BluRay.REMUX.AVC.DTS-HD.MA.TrueHD.5.1-FGT 38.30 GB

  • 版本:高清完整版
  • 发布:

电影介绍

    唐人街 Chinatown.1974.1080p.BluRay.REMUX.AVC.DTS-HD.MA.TrueHD.5.1-FGT 38.30 GB话儿多(滔滔碧空如洗不骨瘦如柴绝)50. 人生不仅带走了诸多芳华,也留下许多遗憾,让多愁善感的人感叹不已。而有些远去的已经来不及,记不起。我常常到山上采野,站得越高,也许看得越远。但那些来不及回望的,已经堆积缠叠,再也理不出来了。只有回望那些刚刚走过的路,细细回味这淡淡涩涩的味道。30.考虑到诸多因素 take many factors into account/ consideration175.白发三千丈,缘愁似个长。《秋浦歌》

    悠悠MP4_MP4电影下载_唐人街 Chinatown.1974.1080p.BluRay.REMUX.AVC.DTS-HD.MA.TrueHD.5.1-FGT 38.30 GB

◎片  名 唐人街 Chinatown
◎年  代 1974
◎产  地 美国
◎类  别 剧情 / 悬疑 / 惊悚 / 犯罪
◎语  言 英语 / 粤语 / 西班牙语
◎上映日期 1974-06-20(美国)
◎IMDb评分  8.2/10 from 319654 users
◎IMDb链接  https://www.imdb.com/title/tt0071315/
◎豆瓣评分 8.4/10 from 53989 users
◎豆瓣链接 https://movie.douban.com/subject/1293889/
◎片  长 130分钟
◎导  演 罗曼·波兰斯基 Roman Polanski
◎编  剧 罗伯特·汤 Robert Towne
       罗曼·波兰斯基 Roman Polanski
◎主  演 杰克·尼科尔森 Jack Nicholson
       费·唐纳薇 Faye Dunaway
       约翰·休斯顿 John Huston
       戴安·拉德 Diane Ladd
       罗曼·波兰斯基 Roman Polanski
       布鲁斯·格洛弗 Bruce Glover
       乔·马特尔 Joe Mantell
       罗伊·詹森 Roy Jenson
       吴汉章 James Hong
       约翰·席勒曼 John Hillerman
       佩里·洛佩兹 Perry Lopez

◎简  介

  1937年的洛山矶唐人街,警员杰克(杰克•尼科尔森 Jack Nicholson 饰)因不满这里的黑暗,辞职当起了私家侦探。这天,一个自称莫拉雷太太的女子请杰克调查丈夫的外遇,杰克欣然接受。杰克发现莫拉雷原来是当地水利总工程师,正在为兴建水坝问题和当地农民争执。随后有人给 了杰克一些证明莫拉雷偷情的照片,隔天早上真正的莫拉雷太太却找上门来要求杰克停止调查莫拉雷。                                    
      事情变得越来越迷离,杰克决心追查下去……

◎获奖情况

  第47届奥斯卡金像奖 (1975)
  最佳影片(提名)
  罗伯特·埃文斯最佳导演(提名)
  罗曼·波兰斯基最佳男主角(提名)
  杰克·尼科尔森最佳女主角(提名)
  费·唐纳薇最佳原创剧本
  罗伯特·汤最佳摄影(提名)
  约翰·A·阿朗索最佳剪辑(提名)
  萨姆•奥斯廷最佳音响(提名)
  拉里·乔斯特 / 查尔斯·格伦兹巴赫最佳艺术指导(提名)
  理查德·希尔伯特 / W·斯图尔特·坎贝尔 / 鲁比·R·莱维特最佳服装设计(提名)
  安西娅·塞尔伯特剧情片最佳原创配乐(提名)
  杰瑞·高德史密斯
    


    
Video
ID           : 1
ID in the original source medium     : 4113 (0x1011)
Format       : AVC
Format/Info      : Advanced Video Codec
Format profile       : High@L4.1
Format settings      : CABAC / 4 Ref Frames
Format settings, CABAC       : Yes
Format settings, Reference frames    : 4 frames
Codec ID         : V_MPEG4/ISO/AVC
Duration         : 2 h 10 min
Bit rate mode        : Variable
Bit rate         : 33.2 Mb/s
Maximum bit rate     : 38.0 Mb/s
Width        : 1 920 pixels
Height       : 1 080 pixels
Display aspect ratio     : 16:9
Frame rate mode      : Constant
Frame rate       : 23.976 (24000/1001) FPS
Color space      : YUV
Chroma subsampling       : 4:2:0
Bit depth        : 8 bits
Scan type        : Progressive
Bits/(Pixel*Frame)       : 0.669
Stream size      : 30.3 GiB (79%)
Language         : English
Default          : No
Forced       : No
Original source medium       : Blu-ray

Audio #1
ID           : 2
ID in the original source medium     : 4352 (0x1100)
Format       : MLP FBA
Format/Info      : Meridian Lossless Packing FBA
Commercial name      : Dolby TrueHD
Codec ID         : A_TRUEHD
Duration         : 2 h 10 min
Bit rate mode        : Variable
Bit rate         : 3 019 kb/s
Maximum bit rate     : 4 668 kb/s
Channel(s)       : 6 channels
Channel layout       : L R C LFE Ls Rs
Sampling rate        : 48.0 kHz
Frame rate       : 1 200.000 FPS (40 SPF)
Bit depth        : 24 bits
Compression mode     : Lossless
Stream size      : 2.75 GiB (7%)
Title        : TrueHD 5.1
Language         : English
Default          : Yes
Forced       : No
Original source medium       : Blu-ray

Audio #2
ID           : 3
Format       : DTS XLL
Format/Info      : Digital Theater Systems
Commercial name      : DTS-HD Master Audio
Codec ID         : A_DTS
Duration         : 2 h 10 min
Bit rate mode        : Variable
Bit rate         : 3 489 kb/s
Channel(s)       : 6 channels
Channel layout       : C L R Ls Rs LFE
Sampling rate        : 48.0 kHz
Frame rate       : 93.750 FPS (512 SPF)
Bit depth        : 24 bits
Compression mode     : Lossless
Stream size      : 3.18 GiB (8%)
Title        : DTS-HD MA 5.1
Language         : English
Default          : No
Forced       : No

Audio #3
ID           : 4
ID in the original source medium     : 4352 (0x1100)
Format       : AC-3
Format/Info      : Audio Coding 3
Commercial name      : Dolby Digital
Codec ID         : A_AC3
Duration         : 2 h 10 min
Bit rate mode        : Constant
Bit rate         : 640 kb/s
Channel(s)       : 6 channels
Channel layout       : L R C LFE Ls Rs
Sampling rate        : 48.0 kHz
Frame rate       : 31.250 FPS (1536 SPF)
Compression mode     : Lossy
Stream size      : 598 MiB (2%)
Title        : DD 5.1
Language         : English
Service kind         : Complete Main
Default          : No
Forced       : No
Original source medium       : Blu-ray

Audio #4
ID           : 5
ID in the original source medium     : 4353 (0x1101)
Format       : MLP FBA
Format/Info      : Meridian Lossless Packing FBA
Commercial name      : Dolby TrueHD
Codec ID         : A_TRUEHD
Duration         : 2 h 10 min
Bit rate mode        : Variable
Bit rate         : 331 kb/s
Maximum bit rate     : 573 kb/s
Channel(s)       : 2 channels
Channel layout       : L R
Sampling rate        : 48.0 kHz
Frame rate       : 1 200.000 FPS (40 SPF)
Bit depth        : 24 bits
Compression mode     : Lossless
Stream size      : 309 MiB (1%)
Title        : TrueHD 2.0
Language         : English
Default          : No
Forced       : No
Original source medium       : Blu-ray

Audio #5
ID           : 6
ID in the original source medium     : 4353 (0x1101)
Format       : AC-3
Format/Info      : Audio Coding 3
Commercial name      : Dolby Digital
Codec ID         : A_AC3
Duration         : 2 h 10 min
Bit rate mode        : Constant
Bit rate         : 224 kb/s
Channel(s)       : 2 channels
Channel layout       : L R
Sampling rate        : 48.0 kHz
Frame rate       : 31.250 FPS (1536 SPF)
Compression mode     : Lossy
Stream size      : 209 MiB (0%)
Title        : DD 2.0
Language         : English
Service kind         : Complete Main
Default          : No
Forced       : No
Original source medium       : Blu-ray

Audio #6
ID           : 7
ID in the original source medium     : 4354 (0x1102)
Format       : AC-3
Format/Info      : Audio Coding 3
Commercial name      : Dolby Digital
Codec ID         : A_AC3
Duration         : 2 h 10 min
Bit rate mode        : Constant
Bit rate         : 224 kb/s
Channel(s)       : 2 channels
Channel layout       : L R
Sampling rate        : 48.0 kHz
Frame rate       : 31.250 FPS (1536 SPF)
Compression mode     : Lossy
Stream size      : 209 MiB (0%)
Title        : DD 2.0
Language         : French
Service kind         : Complete Main
Default          : No
Forced       : No
Original source medium       : Blu-ray

Audio #7
ID           : 8
ID in the original source medium     : 4355 (0x1103)
Format       : AC-3
Format/Info      : Audio Coding 3
Commercial name      : Dolby Digital
Codec ID         : A_AC3
Duration         : 2 h 10 min
Bit rate mode        : Constant
Bit rate         : 224 kb/s
Channel(s)       : 2 channels
Channel layout       : L R
Sampling rate        : 48.0 kHz
Frame rate       : 31.250 FPS (1536 SPF)
Compression mode     : Lossy
Stream size      : 209 MiB (0%)
Title        : DD 2.0
Language         : Spanish
Service kind         : Complete Main
Default          : No
Forced       : No
Original source medium       : Blu-ray

Audio #8
ID           : 9
ID in the original source medium     : 4356 (0x1104)
Format       : AC-3
Format/Info      : Audio Coding 3
Commercial name      : Dolby Digital
Codec ID         : A_AC3
Duration         : 2 h 10 min
Bit rate mode        : Constant
Bit rate         : 224 kb/s
Channel(s)       : 2 channels
Channel layout       : L R
Sampling rate        : 48.0 kHz
Frame rate       : 31.250 FPS (1536 SPF)
Compression mode     : Lossy
Stream size      : 209 MiB (0%)
Title        : DD 2.0
Language         : Portuguese
Service kind         : Complete Main
Default          : No
Forced       : No
Original source medium       : Blu-ray

Audio #9
ID           : 10
ID in the original source medium     : 4357 (0x1105)
Format       : AC-3
Format/Info      : Audio Coding 3
Commercial name      : Dolby Digital
Codec ID         : A_AC3
Duration         : 2 h 10 min
Bit rate mode        : Constant
Bit rate         : 224 kb/s
Channel(s)       : 2 channels
Channel layout       : L R
Sampling rate        : 48.0 kHz
Frame rate       : 31.250 FPS (1536 SPF)
Compression mode     : Lossy
Stream size      : 209 MiB (0%)
Title        : DD 2.0
Language         : English
Service kind         : Complete Main
Default          : No
Forced       : No
Original source medium       : Blu-ray

Text #1
ID           : 11
Format       : UTF-8
Codec ID         : S_TEXT/UTF8
Codec ID/Info        : UTF-8 Plain Text
Duration         : 2 h 6 min
Bit rate         : 54 b/s
Count of elements        : 1458
Stream size      : 50.1 KiB (0%)
Language         : English
Default          : Yes
Forced       : No

Text #2
ID           : 12
ID in the original source medium     : 4608 (0x1200)
Format       : PGS
Muxing mode      : zlib
Codec ID         : S_HDMV/PGS
Codec ID/Info        : Picture based subtitle format used on BDs/HD-DVDs
Duration         : 2 h 6 min
Bit rate         : 34.2 kb/s
Count of elements        : 2942
Stream size      : 31.0 MiB (0%)
Language         : English
Default          : No
Forced       : No
Original source medium       : Blu-ray

Text #3
ID           : 13
ID in the original source medium     : 4609 (0x1201)
Format       : PGS
Muxing mode      : zlib
Codec ID         : S_HDMV/PGS
Codec ID/Info        : Picture based subtitle format used on BDs/HD-DVDs
Duration         : 2 h 7 min
Bit rate         : 35.5 kb/s
Count of elements        : 3134
Stream size      : 32.2 MiB (0%)
Language         : English
Default          : No
Forced       : No
Original source medium       : Blu-ray

Text #4
ID           : 14
ID in the original source medium     : 4610 (0x1202)
Format       : PGS
Muxing mode      : zlib
Codec ID         : S_HDMV/PGS
Codec ID/Info        : Picture based subtitle format used on BDs/HD-DVDs
Duration         : 2 h 6 min
Bit rate         : 24.6 kb/s
Count of elements        : 2532
Stream size      : 22.3 MiB (0%)
Language         : French
Default          : No
Forced       : No
Original source medium       : Blu-ray

Text #5
ID           : 15
ID in the original source medium     : 4611 (0x1203)
Format       : PGS
Muxing mode      : zlib
Codec ID         : S_HDMV/PGS
Codec ID/Info        : Picture based subtitle format used on BDs/HD-DVDs
Duration         : 2 h 8 min
Bit rate         : 27.3 kb/s
Count of elements        : 2766
Stream size      : 25.2 MiB (0%)
Language         : Spanish
Default          : No
Forced       : No
Original source medium       : Blu-ray

Text #6
ID           : 16
ID in the original source medium     : 4612 (0x1204)
Format       : PGS
Muxing mode      : zlib
Codec ID         : S_HDMV/PGS
Codec ID/Info        : Picture based subtitle format used on BDs/HD-DVDs
Duration       &n2. 我长大了开挖掘机。这家伙张开一张超级大嘴,“啊呜”一口将石头呀、土块呀全咬在嘴里,然后转个弯准确无误地吐到另一台装载车上,太神奇、太好玩了。bsp; : 2 h 6 min
Bit rate         : 28.7 kb/s
Count of elements        : 2738
Stream size      : 25.9 MiB (0%)
Language         : Portuguese
Default          : No
Forced       : No
Original source medium       : Blu-ray

Menu
00:00:00.000         : en:Chapter 01
00:05:46.179         : en:Chapter 02
00:16:21.230         : en:Chapter 03
00:24:39.895         : en:Chapter 04
00:36:10.168         : en:Chapter 05
00:45:12.042         : en:Chapter 06
00:59:57.927         : en:Chapter 07
01:06:28.901         : en:Chapter 08
01:14:47.191         : en:Chapter 09
01:20:22.234         : en:Chapter 10
01:29:11.471         : en:Chapter 11
01:35:31.517         : en:Chapter 12
01:47:13.552         : en:Chapter 13
01:54:15.431         : en:Chapter 14
01:59:51.601         : en:Chapter 15
02:03:43.582         : en:Chapter 16

    

悠悠MP4_MP4电影下载_唐人街 Chinatown.1974.1080p.BluRay.REMUX.AVC.DTS-HD.MA.TrueHD.5.1-FGT 38.30 GB
悠悠MP4_MP4电影下载_唐人街 Chinatown.1974.1080p.BluRay.REMUX.AVC.DTS-HD.MA.TrueHD.5.1-FGT 38.30 GB
悠悠MP4_MP4电影下载_唐人街 Chinatown.1974.1080p.BluRay.REMUX.AVC.DTS-HD.MA.TrueHD.5.1-FGT 38.30 GB

磁力链接


    
    花 犯 吴文英直道相思了无益,未妨惆怅是清狂。电影下载,MP4下载,高清电影,电影排行榜,电影票房59、Custom makes all things easy.

热门电影下载

最新电影下载

电影票房排行榜