电影下载

Private Property Private.Property.2022.1080p.WEBRip.x265-RARBG 1.35 GB

Private Property Private.Property.2022.1080p.WEBRip.x265-RARBG 1.35 GB

  • 版本:高清完整版
  • 发布:

电影介绍

    Private Property Private.Property.2022.1080p.WEBRip.x265-RARBG 1.35 GB夜色柔美鹤立人无远虑,必有近忧鸡群35. 我相信自己,创造我的是上帝,我不可能是无用之人。当我沿着公园路往东走的时候,有一个老人在街的另一边从公园里走出来。113.日月之行,若出其中;星汉灿烂,若出其里。《观沧海》

    悠悠MP4_MP4电影下载_Private Property Private.Property.2022.1080p.WEBRip.x265-RARBG 1.35 GB

◎片  名 P垂头塌翅拼音:chuí tóu tā chì释义:形容受挫后萎靡不振的样子。出处:《新唐书·萧遘传》君臣报国极矣,战力殚矣,尚能垂头塌翅求生于黄门哉!”示例:无rivate Property
◎年  代 2022
◎产  地 美国
◎类  别 剧情 / 惊悚
◎语  言 
◎上映日期 
◎IMDb评分  4.8/10 from 20 users
◎IMDb链接  https://www.imdb.com/title/tt15167994/
◎豆瓣评分 /10 from 0 users
◎豆瓣链接 https://movie.douban.com/subject/35709611/
◎片  长 
◎导  演 Chadd Harbold Chadd Harbold
◎编  剧 Chadd Harbold Chadd Harbold
       莱斯利·史蒂文斯 Leslie Stevens
◎主  演 艾什莉·本森 Ashley Benson
       希罗·弗南德兹 Shiloh Fernandez
       洛根·米勒 Logan Miller

◎简  介

  Kathryn, a struggling actress and unfulfilled housewife, becomes involved with her new gardener, Ben. As he gives her the attention and sensitivity she craves, they start to fall for each other. But Ben is not what he seems.
    


    
Video
ID           : 1
Format       : HEVC
Format/Info      : High Efficiency Video Coding
Format profile       : Main 10@L4@Main
Codec ID         : hev1
Codec ID/Info        : High Efficiency Video Coding
Duration         : 1 h 26 min
Bit rate         : 2 000 kb/s
Width        : 1 908 pixels
Height       : 788 pixels
Display aspect ratio     : 2.40:1
Frame rate mode      : Constant
Frame rate       : 23.976 (24000/1001) FPS
Color space      : YUV
Chroma subsampling       : 4:2:0
Bit depth        : 10 bits
Bits/(Pixel*Frame)       : 0.055
Stream size      : 1.21 GiB (90%)
Writing library      : x265 3.3+4-rarbg-30eb4de83092:[Linux][GCC 8.3.1][64 bit] 10bit
Encoding settings        : cpuid=1111039 / frame-threads=4 / wpp / no-pmode / no-pme / no-psnr / no-ssim / log-level=2 / input-csp=1 / input-res=1908x788 / interlace=0 / total-frames=0 / level-idc=0 / high-tier=1 / uhd-bd=0 / ref=4 / no-allow-non-conformance / no-repeat-headers / annexb / no-aud / no-hrd / info / hash=0 / no-temporal-layers / open-gop / min-keyint=23 / keyint=250 / gop-lookahead=0 / bframes=4 / b-adapt=2 / b-pyramid / bframe-bias=0 / rc-lookahead=25 / lookahead-slices=4 / scenecut=40 / hist-scenecut=0 / radl=0 / no-splice / no-intra-refresh / ctu=64 / min-cu-size=8 / rect / no-amp / max-tu-size=32 / tu-inter-depth=1 / tu-intra-depth=1 / limit-tu=0 / rdoq-level=2 / dynamic-rd=0.00 / no-ssim-rd / signhide / no-tskip / nr-intra=0 / nr-inter=0 / no-constrained-intra / strong-intra-smoothing / max-merge=3 / limit-refs=3 / limit-modes / me=3 / subme=3 / merange=57 / temporal-mvp / no-frame-dup / no-hme / weightp / no-weightb / no-analyze-src-pics / deblock=0:0 / no-sao / no-sao-non-deblock / rd=4 / selective-sao=0 / no-early-skip / rskip / no-fast-intra / no-tskip-fast / no-cu-lossless / no-b-intra / no-splitrd-skip / rdpenalty=0 / psy-rd=2.00 / psy-rdoq=1.00 / no-rd-refine / no-lossless / cbqpoffs=0 / crqpoffs=0 / rc=abr / bitrate=2000 / qcomp=0.60 / qpstep=4 / stats-write=0 / stats-read=2 / cplxblur=20.0 / qblur=0.5 / ipratio=1.40 / pbratio=1.30 / aq-mode=3 / aq-strength=1.00 / cutree / zone-count=0 / no-strict-cbr / qg-size=32 / no-rc-grain / qpmax=69 / qpmin=0 / no-const-vbv / sar=1 / overscan=0 / videoformat=5 / range=0 / colorprim=2 / transfer=2 / colormatrix=2 / chromaloc=0 / display-window=0 / cll=0,0 / min-luma=0 / max-luma=1023 / log2-max-poc-lsb=8 / vui-timing-info / vui-hrd-info / slices=1 / no-opt-qp-pps / no-opt-ref-list-length-pps / no-multi-pass-opt-rps / scenecut-bias=0.05 / hist-threshold=0.01 / no-opt-cu-delta-qp / no-aq-motion / no-hdr10 / no-hdr10-opt / no-dhdr10-opt / no-idr-recovery-sei / analysis-reuse-level=0 / analysis-save-reuse-level=0 / analysis-load-reuse-level=0 / scale-factor=0 / refine-intra=0 / refine-inter=0 / refine-mv=1 / refine-ctu-distortion=0 / no-limit-sao / ctu-info=0 / no-lowpass-dct / refine-analysis-type=0 / copy-pic=1 / max-ausize-factor=1.0 / no-dynamic-refine / no-single-sei / no-hevc-aq / no-svt / no-field / qp-adaptation-range=1.00 / no-scenecut-aware-qpconformance-window-offsets / right=0 / bottom=0
Encoded date         : UTC 2022-05-13 14:36:39
Tagged date      : UTC 2022-05-13 14:36:39
Codec configuration box      : hvcC

Audio
ID           : 2
Format       : AAC LC
Format/Info      : Advanced Audio Codec Low Complexity
Codec ID         : mp4a-40-2
Duration         : 1 h 26 min
Duration_LastFrame       : -11 ms
Bit rate mode        : Constant
Bit rate         : 224 kb/s
Channel(s)       : 6 channels
Channel layout       : C L R Ls Rs LFE
Sampling rate        : 48.0 kHz
Frame rate       : 46.875 FPS (1024 SPF)
Compression mode     : Lossy
Stream size      : 139 MiB (10%)
Language         : English
Default          : Yes
Alternate group      : 1
Encoded date         : UTC 2022-05-13 14:36:39
Tagged date      : UTC 2022-05-13 14:36:39

    

悠悠MP4_MP4电影下载_Private Property Private.Property.2022.1080p.WEBRip.x265-RARBG 1.35 GB
悠悠MP4_MP4电影下载_Private Property Private.Property.2022.1080p.WEBRip.x265-RARBG 1.35 GB
悠悠MP4_MP4电影下载_Private Property Private.Property.2022.1080p.WEBRip.x265-RARBG 1.35 GB

磁力链接


    
    阮郎归 晏几道西山白雪三城戍,南浦清江万里桥。电影下载,MP4下载,高清电影,电影排行榜,电影票房Accordingly, this assumption is simply an unproven claim.

热门电影下载

最新电影下载

电影票房排行榜