电影下载

Hannibal Hopkins & Sir Anthony Hannibal.Hopkins.and.Sir.Anthony.2021.1080p.WEBRip.x265-RARBG 874.37

Hannibal Hopkins & Sir Anthony Hannibal.Hopkins.and.Sir.Anthony.2021.1080p.WEBRip.x265-RARBG 874.37

  • 版本:高清完整版
  • 发布:

电影介绍

    Hannibal Hopkins & Sir Anthony Hannibal.Hopkins.and.Sir.Anthony.2021.1080p.WEBRip.x265-RARBG 874.37 MB笨五颜六色安步当车鸟先飞41. 世界上没有人不希望别人了解自己的,每个人都渴望得到别人的关注,渴望了解,就象襁褓中的孩童,伸出双手渴望母亲的拥抱。但是,总有些人,在受了太多的伤害或者是惊吓以后,对这样的事情失去兴趣。经历过很多事情的人,对别人是否了解自己,真的觉得不重要了。或者,关注自己的人太多,就不注意了。我是比较喜欢前者的,那是一种看破事情的淡然,后者就是受尽宠爱的娇纵。比如说梁朝伟,低调至死,也是苍生艳羡。18. Children usually have far more potential than their parents had realized林则徐382.海纳百川,有容乃大;壁立千仞,无欲则刚。

    悠悠MP4_MP4电影下载_Hannibal Hopkins & Sir Anthony Hannibal.Hopkins.and.Sir.Anthony.2021.1080p.WEBRip.x265-RARBG 874.37 MB

◎片  名 Hannibal Hopkins & Sir Anthony
◎年  代 2021
◎产  地 法国
◎类  别 纪录片
◎语  言 法语 / 英语
◎上映日期 
◎IMDb评分  7.1/10 from 66 users
◎IMDb链接  https://www.imdb.com/title/tt14695214/
◎豆瓣评分 /10 from 0 users
◎豆瓣链接 https://movie.douban.com/subject/35807349/
◎片  长 53分钟
◎导  演 
◎编  剧 
◎主  演 

◎简  介

  A face set in stone, a monotone voice, a magnetism that transcends the screen: who is really hiding behind the mask of the murderer who made an entire generation tremble? Hannibal Hopkins & Sir Anthony is, first and foremost, the romantic story of a post-war child predestined for an unremarkable fate, whose life is a journey strewn with pitfalls, addiction, and opportunities lost—but also renewal. Through rare archives, numerous film excerpts, and interviews, this film reveals Sir Anthony Hopkins, the pride of the United Kingdom, an enigmatic, mysterious figure who was knighted by the Queen, and an unclassifiable, eccentric, and acerbic actor.
    


    
Video
ID           : 1
Format       : HEVC
Format/Info      : High Efficiency Video Coding
Format profile       : Main 10@L4@Main
Codec ID         : hev1
Codec ID/Info        : High Efficiency Video Coding
Duration         : 54 min 47 s
Bit rate         : 2 001 kb/s
Width        : 1 920 pixels
Height       : 1 080 pixels
Display aspect ratio     : 16:9
Frame rate mode      : Constant
Frame rate       : 23.976 (24000/1001) FPS
Color space      : YUV
Chroma subsampling       : 4:2:0
Bit depth        : 10 bits
Bits/(Pixel*Frame)       : 0.040
Stream size      : 784 MiB (90%)
Writing library      : x265 3.3+4-rarbg-30eb4de83092:[Linux][GCC 8.3.1][64 bit] 10bit
Encoding settings        : cpuid=1111039 / frame-threads=4 / wpp / no-pmode / no-pme / no-psnr / no-ssim / log-level=2 / input-csp=1 / input-res=1920x1080 / interlace=0 / total-frames=0 / level-idc=0 / high-tier=1 / uhd-bd=0 / ref=4 / no-allow-non-conformance / no-repeat-headers / annexb / no-aud / no-hrd / info / hash=0 / no-temporal-layers / open-gop / min-keyint=23 / keyint=250 / gop-lookahead=0 / bframes=4 / b-adapt=2 / b-pyramid / bframe-bias=0 / rc-lookahead=25 / lookahead-slices=4 / scenecut=40 / hist-scenecut=0 / radl=0 / no-splice / no-intra-refresh / ctu=18. 失恋,并不使你痛苦,而你赋予失恋这个现象的附加意义,却将你击溃。64 / min-cu-size=8 / rect / no-amp / max-tu-size=32 / tu-inter-depth=1 / tu-intra-depth=1 / limit-tu=0 / rdoq-level=2 / dynamic-rd=0.00 / no-ssim-rd / signhide / no-tskip / nr-intra=0 / nr-inter=0 / no-constrained-intra / strong-intra-smoothing / max-merge=3 / limit-refs=3 / limit-modes / me=3 / subme=3 / merange=57 / temporal-mvp / no-frame-dup / no-hme / weightp / no-weightb / no-analyze-src-pics / deblock=0:0 / no-sao / no-sao-non-deblock / rd=4 / selective-sao=0 / no-early-skip / rskip / no-fast-intra / no-tskip-fast / no-cu-lossless / no-b-intra / no-splitrd-skip / rdpenalty=0 / psy-rd=2.00 / psy-rdoq=1.00 / no-rd-refine / no-lossless / cbqpoffs=0 / crqpoffs=0 / rc=abr / bitrate=2000 / qcomp=0.60 / qpstep=4 / stats-write=0 / stats-read=2 / cplxblur=20.0 / qblur=0.5 / ipratio=1.40 / pbratio=1.30 / aq-mode=3 / aq-strength=1.00 / cutree / zone-count=0 / no-strict-cbr / qg-size=32 / no-rc-grain / qpmax=69 / qpmin=0 / no-const-vbv / sar=1 / overscan=0 / videoformat=5 / range=0 / colorprim=2 / transfer=2 / colormatrix=2 / chromaloc=0 / display-window=0 / cll=0,0 / min-luma=0 / max-luma=1023 / log2-max-poc-lsb=8 / vui-timing-info / vui-hrd-info / slices=1 / no-opt-qp-pps / no-opt-ref-list-length-pps / no-multi-pass-opt-rps / scenecut-bias=0.05 / hist-threshold=0.01 / no-opt-cu-delta-qp / no-aq-motion / no-hdr10 / no-hdr10-opt / no-dhdr10-opt / no-idr-recovery-sei / analysis-reuse-level=0 / analysis-save-reuse-level=0 / analysis-load-reuse-level=0 / scale-factor=0 / refine-intra=0 / refine-inter=0 / refine-mv=1 / refine-ctu-distortion=0 / no-limit-sao / ctu-info=0 / no-lowpass-dct / refine-analysis-type=0 / copy-pic=1 / max-ausize-factor=1.0 / no-dynamic-refine / no-single-sei / no-hevc-aq / no-svt / no-field / qp-adaptation-range=1.00 / no-scenecut-aware-qpconformance-window-offsets / right=0 / bottom=0
Encoded date         : UTC 2022-05-13 10:51:52
Tagged date      : UTC 2022-05-13 10:51:52
Codec configuration box      : hvcC

Audio
ID           : 2
Format       : AAC LC
Format/Info      : Advanced Audio Codec Low Complexity
Codec ID         : mp4a-40-2
Duration         : 54 min 47 s
Duration_LastFrame       : -1 ms
Bit rate mode        : Constant
Bit rate         : 224 kb/s
Channel(s)       : 2 channels
Channel layout       : L R
Sampling rate        : 48.0 kHz
Frame rate       : 46.875 FPS (1024 SPF)
Compression mode     : Lossy
Stream size      : 87.8 MiB (10%)
Language         : English
Default          : Yes
Alternate group      : 1
Encoded date         : UTC 2022-05-13 10:51:52
Tagged date      : UTC 2022-05-13 10:51:52

    

悠悠MP4_MP4电影下载_Hannibal Hopkins & Sir Anthony Hannibal.Hopkins.and.Sir.Anthony.2021.1080p.WEBRip.x265-RARBG 874.37 MB
悠悠MP4_MP4电影下载_Hannibal Hopkins & Sir Anthony Hannibal.Hopkins.and.Sir.Anthony.2021.1080p.WEBRip.x265-RARBG 874.37 MB
悠悠MP4_MP4电影下载_Hannibal Hopkins & Sir Anthony Hannibal.Hopkins.and.Sir.Anthony.2021.1080p.WEBRip.x265-RARBG 874.37 MB

磁力链接


    
    凌波不过横塘路,但目送、芳尘去。锦瑟华年谁与度?月桥花院,琐窗朱户,只有春知处。问姓惊初见,称名忆旧容。电影下载,MP4下载,高清电影,电影排行榜,电影票房The increase (change / failure /success) in … is due to (owing to / attributable to) the fact that…

热门电影下载

最新电影下载

电影票房排行榜