电影下载

雪豹女王 The.Velvet.Queen.2021.FRENCH.1080p.WEBRip.x265-VXT 1.44 GB

雪豹女王 The.Velvet.Queen.2021.FRENCH.1080p.WEBRip.x265-VXT 1.44 GB

  • 版本:高清完整版
  • 发布:

电影介绍

    雪豹女王 The.Velvet.Queen.2021.FRENCH.1080p.WEBRip.x265-VXT 1.44 GB春五花八门光明水平如镜媚11. 人生难免经受挫折,风雨过后就是彩虹;生活难免遭受苦难,雨过天晴终有阳光。22.利远远大于弊 the advantages far outweigh the disadvantages218.在天愿作比翼鸟,在地愿为连理枝。《长恨歌》

    悠悠MP4_MP4电影下载_雪豹女王 The.Velvet.Queen.2021.FRENCH.1080p.WEBRip.x265-VXT 1.44 GB

◎片  名 雪豹女王 La Panthère des neiges / 雪豹 / The Velvet Queen
◎年  代 2021
◎产  地 法国
◎类  别 纪录片
◎语  言 法语
◎上映日期 2021-07(法国)
◎IMDb评分  7.9/10 from 915 users
◎IMDb链接  https://www.imdb.com/title/tt11937680/
◎豆瓣评分 8.4/10 from 139 users
◎豆瓣链接 https://movie.douban.com/subject/35441274/
◎片  长 92分钟
◎导  演 
◎编  剧 
◎主  演 

◎简  介

  Going well beyond the conventions of the expedition film genre, Marie Amiguet sets up he camera on the Tibetan Plateau accompanied by the wildlife photographer Vincent Munier the adventure writer Sylvain Tesson, who describes their time in his book La Panthère desneiges which won the Prix Renaudot in 2019. Will they succeed in seeing the big cat? In th process of capturing the anticipation, the silence, the passing of the days and the strength nature, an obvious theme emerges: the beauty of the world.

◎获奖情况

  第47届法国凯撒电影奖 (2022)
  最佳纪录片
  最佳处女作(提名)
  最佳原创音乐(提名)
    


    
Video
ID           : 1
Format       : HEVC
Format/Info      : High Efficiency Video Coding
Format profile       : Main 10@L4@Main
Codec ID         : hev1
Codec ID/Info        : High Efficiency Video Coding
Duration         : 1 h 32 min
Bit rate         : 2 001 kb/s
Width        : 1 920 pixels
Height       : 960 pixels
Display aspect ratio     : 2.000
Frame rate mode      : Constant
Frame rate       : 23.976 (24000/1001) FPS
Color space      : YUV
Chroma subsampling       : 4:2:0
Bit depth        : 10 bits
Bits/(Pixel*Frame)       : 0.045
Stream size      : 1.29 GiB (90%)
Writing library      : x265 337. 结束以后别告诉他我恨你,因为,爱情是两个人的事,错过了大家都有责任。.3+4-rarbg-30eb4de83092:[Linux][GCC 8.3.1][64 bit] 10bit
Encoding settings        : cpuid=1111039 / frame-threads=4 / wpp / no-pmode / no-pme / no-psnr / no-ssim / log-level=2 / input-csp=1 / input-res=1920x960 / interlace=0 / total-frames=0 / level-idc=0 / high-tier=1 / uhd-bd=0 / ref=4 / no-allow-non-conformance / no-repeat-headers / annexb / no-aud / no-hrd / info / hash=0 / no-temporal-layers / open-gop / min-keyint=23 / keyint=250 / gop-lookahead=0 / bframes=4 / b-adapt=2 / b-pyramid / bframe-bias=0 / rc-lookahead=25 / lookahead-slices=4 / scenecut=40 / hist-scenecut=0 / radl=0 / no-splice / no-intra-refresh / ctu=64 / min-cu-size=8 / rect / no-amp / max-tu-size=32 / tu-inter-depth=1 / tu-intra-depth=1 / limit-tu=0 / rdoq-level=2 / dynamic-rd=0.00 / no-ssim-rd / signhide / no-tskip / nr-intra=0 / nr-inter=0 / no-constrained-intra / strong-intra-smoothing / max-merge=3 / limit-refs=3 / limit-modes / me=3 / subme=3 / merange=57 / temporal-mvp / no-frame-dup / no-hme / weightp / no-weightb / no-analyze-src-pics / deblock=0:0 / no-sao / no-sao-non-deblock / rd=4 / selective-sao=0 / no-early-skip / rskip / no-fast-intra / no-tskip-fast / no-cu-lossless / no-b-intra / no-splitrd-skip / rdpenalty=0 / psy-rd=2.00 / psy-rdoq=1.00 / no-rd-refine / no-lossless / cbqpoffs=0 / crqpoffs=0 / rc=abr / bitrate=2000 / qcomp=0.60 / qpstep=4 / stats-write=0 / stats-read=2 / cplxblur=20.0 / qblur=0.5 / ipratio=1.40 / pbratio=1.30 / aq-mode=3 / aq-strength=1.00 / cutree / zone-count=0 / no-strict-cbr / qg-size=32 / no-rc-grain / qpmax=69 / qpmin=0 / no-const-vbv / sar=1 / overscan=0 / videoformat=5 / range=0 / colorprim=2 / transfer=2 / colormatrix=2 / chromaloc=0 / display-window=0 / cll=0,0 / min-luma=0 / max-luma=1023 / log2-max-poc-lsb=8 / vui-timing-info / vui-hrd-info / slices=1 / no-opt-qp-pps / no-opt-ref-list-length-pps / no-multi-pass-opt-rps / scenecut-bias=0.05 / hist-threshold=0.01 / no-opt-cu-delta-qp / no-aq-motion / no-hdr10 / no-hdr10-opt / no-dhdr10-opt / no-idr-recovery-sei / analysis-reuse-level=0 / analysis-save-reuse-level=0 / analysis-load-reuse-level=0 / scale-factor=0 / refine-intra=0 / refine-inter=0 / refine-mv=1 / refine-ctu-distortion=0 / no-limit-sao / ctu-info=0 / no-lowpass-dct / refine-analysis-type=0 / copy-pic=1 / max-ausize-factor=1.0 / no-dynamic-refine / no-single-sei / no-hevc-aq / no-svt / no-field / qp-adaptation-range=1.00 / no-scenecut-aware-qpconformance-window-offsets / right=0 / bottom=0
Encoded date         : UTC 2022-05-13 13:03:34
Tagged date      : UTC 2022-05-13 13:03:34
Codec configuration box      : hvcC

Audio
ID           : 2
Format       : AAC LC
Format/Info      : Advanced Audio Codec Low Complexity
Codec ID         : mp4a-40-2
Duration         : 1 h 32 min
Bit rate mode        : Constant
Bit rate         : 224 kb/s
Channel(s)       : 6 channels
Channel layout       : C L R Ls Rs LFE
Sampling rate        : 48.0 kHz
Frame rate       : 46.875 FPS (1024 SPF)
Compression mode     : Lossy
Stream size      : 148 MiB (10%)
Language         : French
Default          : Yes
Alternate group      : 1
Encoded date         : UTC 2022-05-13 13:03:34
Tagged date      : UTC 2022-05-13 13:03:34

    

悠悠MP4_MP4电影下载_雪豹女王 The.Velvet.Queen.2021.FRENCH.1080p.WEBRip.x265-VXT 1.44 GB
悠悠MP4_MP4电影下载_雪豹女王 The.Velvet.Queen.2021.FRENCH.1080p.WEBRip.x265-VXT 1.44 GB
悠悠MP4_MP4电影下载_雪豹女王 The.Velvet.Queen.2021.FRENCH.1080p.WEBRip.x265-VXT 1.44 GB

磁力链接


    
    二十馀年如一梦,此身虽在堪惊,头登小阁看新晴。古今多少事,渔唱起三更。316王之涣:出塞电影下载,MP4下载,高清电影,电影排行榜,电影票房19.It is hard to please all. 众口难调。

热门电影下载

最新电影下载

电影票房排行榜