电影下载

爱的怪物论 Monstrous.2022.1080p.WEBRip.x265-RARBG 1.38 GB

爱的怪物论 Monstrous.2022.1080p.WEBRip.x265-RARBG 1.38 GB

  • 版本:高清完整版
  • 发布:

电影介绍

    爱的怪物论 Monstrous.2022.1080p.WEBRip.x265-RARBG 1.38 GB悬崖屈指旁敲侧击可数峭壁27. 正因爱心,流浪的人们才能重返家园;正因爱心,疲惫的灵魂才能活力如初。渴望爱心,如同星光渴望彼此辉映;渴望爱心,如同世纪之歌渴望永远被唱下去。14.就…达到绝对的一致 reach an absolute consensus on…晏殊275.无可奈何花落去,似曾相识燕归来。《浣溪沙》

    悠悠MP4_MP4电影下载_爱的怪物论 Monstrous.2022.1080p.WEBRip.x265-RARBG 1.38 GB

◎片  名 爱的怪物论 Monstrous / 恶鬼无情
◎年  代 2022
◎产  地 美国
◎类  别 悬疑 / 惊悚
◎语  言 英语
◎上映日期 2022-03-12(FrightFest Glasgow)
◎IMDb评分  6.3/10 from 85 users
◎IMDb链接  https://www.imdb.com/title/tt4624366/
◎豆瓣评分 /10 from 0 users
◎豆瓣链接 https://movie.douban.com/subject/35594791/
◎片  长 
◎导  演 克里斯·赛弗森 Chris Sivertson
◎编  剧 
◎主  演 克里斯蒂娜·里奇 Christina Ricci
       桑蒂诺·巴纳德 Santino Barnard
       考林·加普 Colleen Camp
       卢·坦普尔 Lew Temple
       卡罗·安妮·瓦特斯 Carol Anne Watts
       尼克·瓦莱隆加 Nick Vallelonga
       Rachael Edlow Rachael Edlow
       克里斯‧穆利纳克斯 Chris Mullinax
       达林·库珀 Darin Cooper

◎简  介

  《去死吧!啦啦隊》美國導演克里斯席維森重返金馬奇幻影展的新作《愛的怪物論》,邀來《阿達一族》超酷女孩「星期三」克莉絲汀蕾琪領銜主演,當年鬼靈精怪的少女成了飽受風霜的單親媽媽,帶著兒子遠赴邊陲小鎮重新開始,原以為新生活就要展開,沒想到這次不僅要面對自己的心魔,還要挺身抵抗真正的「怪物」。影片巧妙致敬《迷魂記》與《剃刀邊緣》,更被美國影評譽為對怪物類型電影做出全新的演繹。
    


    
Video
ID           : 1
Format       : HEVC
Format/Info      : High Efficiency Video Coding
Format profile       : Main 10@L4@Main
Codec ID         : hev1
Codec ID/Info        : High Efficiency Video Coding
Duration         : 1 h 28 min
Bit rate         : 2 002 kb/s
Width        : 1 918 pixels
Height       : 800 pixels
Display aspect ratio     : 2.40:1
Original display aspect ratio    : 2.40:1
Frame rate mode      : Constant
Frame rate       : 23.976 (24000/1001) FPS
Color space      : YUV
Chroma subsampling       : 4:2:0
Bit depth        : 10 bits
Bits/(Pixel*Frame)       : 0.054
Stream size      : 1.24 GiB (90%)
Writing library      : x265 3.3+4-rarbg-30eb4de83092:[Linux][GCC 8.3.1][64 bit] 10bit
Encoding settings        : cpuid=1111039 / frame-threads=4 / wpp / no-pmode / no-pme / no-psnr / no-ssim / log-level=2 / input-csp=1 / input-res=1918x800 / interlace=0 / total-frames=0 / level-idc=0 / high-tier=1 / uhd-bd=0 / ref=4 / no-allow-non-conformance / no-repeat-headers / annexb / no-aud / no-hrd / info / hash=0 / no-temporal-layers / open-gop / min-keyint=23 / keyint=250 / gop-lookahead=0 / bframes=4 / b-adapt=2 / b-pyramid / bframe-bias=0 / rc-lookahead=25 / lookahead-slices=4 / scenecut=40 / hist-scenecut=0 / radl=0 / no-splice / no-intra-refresh / ctu=64 / min-cu-size=8 / rect / no-amp / max-tu-size=32 / tu-inter-depth=1 / tu-intra-depth=1 / limit-tu=0 / rdoq-level=2 / dynamic-rd=0.00 / no-ssim-rd / signhide / no-tskip / nr-intra=0 / nr-inter=0 / no-constrained-intra / strong-intra-smoothing / max-merge=3 / limit-refs=3 / limit-modes / me=3 / subme=3 / merange=57 / temporal-mvp / no-frame-dup / no-hme / weightp / no-weightb / no-analyze-src-pics / deblock=0:0 / no-sao / no-sao-non-deblock / rd=4 / selective-sao=0 / no-early-skip / rskip / no-fast-intra / no-tskip-fast / no-cu-lossless / no-b-intra / no-splitrd-skip / rdpenalty=0 / psy-rd=2.00 / psy-rdoq=1.00 / no-rd-refine / no-lossless / cbqpoffs=0 / crqpoffs=0 / rc=abr / bitrate=2000 / qcomp=0.60 / qpstep=4 / stats-write=0 / stats-read=2 / cplxblur=20.0 / qblur=0.5 / ipratio=1.40 / pbratio=1.30 / aq-mode=3 / aq-strength=1.00 / cutree / zone-count=0 / no-strict-cbr / qg-size=32 / no-rc-grain / qpmax=69 / qpmin=0 / no-const-vbv / sar=1 / overscan=0 / videoformat=5 / range=0 / colorprim=2 / transfer=2 / colormatrix=2 / chromaloc=0 / display-window=0 / cll=0,0 / min-luma=0 / max-luma=1023 / log2-max-poc-lsb=8 / vui-timing-info / vui-hrd-info / slices=1 / no-opt-qp-pps / no-opt-ref-list-length-pps / no-multi-pass-opt-rps / scenecut-bias=0.05 / hist-threshold=0.01 / no-opt-cu-delta-qp / no-aq-motion / no-hdr10 / no-hdr10-opt / no-dhdr10-opt / no-idr-recovery-sei / analysis-reuse-level=0 / analysis-save-reuse-level=0 / analysis-load-reuse-level=0 / scale-factor=0 / refine-intra=0 / refine-inter=0 / refine-mv=1 / refine-ctu-distortion=0 / no-limit-sao / ctu-info=0 / no-lowpass-dct / refine-analysis-type=0 / copy-pic=1 / max-ausize-factor=1.0 / no-dynamic-refine / no-single-sei / no-hevc-aq / no-svt / no-field / qp-adaptation-range=1.00 / no-scenecut-aware-qpconformance-window-offsets / right=0 / bottom=0
Encoded date         : UTC 2022-05-13 12:23:33
Tagged date      : UTC 2022-05-13 12:23:33
Codec configuration box      : hvcC

Audio
ID           : 2
Format       : AAC LC
Format/Info      : Advanced Audio Codec Low Complexity
Codec ID         : mp4a-40-2
Duration         : 1 h 28 min
Bit rate mode        : Constant
Bit rate         : 224 kb/s
Channel(s)       : 6 channels
Channel layout       : C L R Ls Rs LFE
Sampling rate        : 48.0 kHz
Frame rate       : 46.875 FPS (1024 SPF)
Compression mode     : Lossy
Stream size      : 142 MiB (10%)
Language         : English
Default          : Yes
Alternate group      : 1
Encoded date         : UTC 2022-05-13 12:23:33
Tagged date      : UTC 2022-05-13 12:23:33

    

悠悠MP4_MP4电影下载_爱的怪物论 Monstrous.2022.1080p.WEBRip.x265-RARBG 1.38 GB
悠悠MP4_MP4电影下载_爱的怪物论 Monstrous.2022.1080p.WEBRip.x265-RARBG 1.38 GB
悠悠MP4_MP4电影下载_爱的怪物论 Monstrous.2022.1080p.WEBRip.x265-RARBG 1.38 GB

磁力链接


    
    烟络横林,山沉远照,迤逦黄昏钟鼓。烛映帘栊,蛩催机杼,共苦清秋风露。不眠思妇,齐应和、几声砧杵。惊动天涯倦宦,锓囗囗岁华行暮。旧时王谢堂前燕,飞入寻常百姓家。电影下载,MP4下载,高清电影,电影排行榜,电影票房As opposed to (Contrary to) widely (commonly/generally) held (accepted) belief (ideas/views), I believe (argue that…

热门电影下载

最新电影下载

电影票房排行榜