电影下载

球鞋灰姑娘 Sneakerella.2022.1080p.WEBRip.x265-RARBG 1.73 GB

球鞋灰姑娘 Sneakerella.2022.1080p.WEBRip.x265-RARBG 1.73 GB

  • 版本:高清完整版
  • 发布:

电影介绍

    球鞋灰姑娘 Sneakerella.2022.1080p.WEBRip.x265-RARBG 1.73 GB错落有一秋菊傲骨个愿打,一个愿挨致42. 汤的英俊不露声色,也和同事开玩笑,也有自己应酬的圈子,说话也不见得多么与众不一样,穿衣服也是很普通的款式。但是就是给我那样的印象,华丽。manage to do sth 设法做某事;persuade sb into doing sth 说服某人做某事《孙子兵法》66.知己知彼,百战不殆。

    悠悠MP4_MP4电影下载_球鞋灰姑娘 Sneakerella.2022.1080p.WEBRip.x265-RARBG 1.73 GB

◎片  名 球鞋灰姑娘 Sneakerella / 球鞋奇缘(台)
◎年  代 2022
◎产  地 美国
◎类  别 喜剧 / 歌舞
◎语  言 英语
◎上映日期 2022-05-13(美国网络)
◎IMDb评分 
◎IMDb链接  https://www.imdb.com/title/tt10160886/
◎豆瓣评分 /10 from 0 users
◎豆瓣链接 https://movie.douban.com/subject/35398570/
◎片  长 
◎导  演 伊丽莎白·艾伦 Elizabeth Allen
◎编  剧 戴维·莱特 David Light
       约瑟夫·拉索 Joseph Raso
       George Gore II George Gore II
       塔马拉·切斯特那 Tamara Chestna
◎主  演 乔森·雅各布 Chosen Jacobs
       莱克西·安德伍德 Lexi Underwood
       科尔顿·斯图尔特 Kolton Stewart
       罗维娜·亚瓦里 Lovina Yavari
       约翰·萨利 John Salley
       塔拉·尼科迪莫 Tara Nicodemo
       洛根·汤普森 Logan Thompson
       迪文·妮科塔 Devyn Nekoda
       罗伯特·J·塔维纳 Robert J. Tavenor
       丹尼尔·基思·莫里森 Daniel Keith Morrison
       Qasim Khan Qasim Khan

◎简  介

  A modern twist on Cinderella set in New York City's Sneaker culture.
    


    
Video
ID           : 1
Format       : HEVC
Format/Info      : High Efficiency Video Coding
Format profile       : Main 10@L4@Main
Codec ID         : hev1
Codec ID/Info        : High Efficiency Video Coding
Duration         : 1 h 50 min
Bit rate         : 2 000 kb/s
Width        : 1 920 pixels
Height       : 960 pixels
Display aspect ratio     : 2.000
Frame rate mode      : Constant
Frame rate       : 23.976 (24000/1001) FPS
Color space      : YUV
Chroma subsampling       : 4:2:0
Bit depth        : 10 bits
Bits/(Pixel*Frame)       : 0.045
Stream size      : 1.55 GiB (90%)
Writing library      : x265 3.3+4-rarbg-30eb4de83092:[Linux][GCC 8.3.1][64 bit] 10bit
Encoding settings        : cpuid=1111039 / frame-threads=4 / wpp / no-pmode / no-pme / no-psnr / no-ssim / log-level=2 / input-csp=1 / input-res=1920x960 / interlace=0 / total-frames=0 / level-idc=0 / high-tier=1 / uhd-bd=0 / ref=4 / no-allow-non-conformance / no-repeat-headers / annexb / no-aud / no-hrd / info / hash=0 / no-temporal-layers / open-gop / min-keyint=23 / keyint=250 / gop-lookahead=0 / bframes=4 / b-adapt=2 / b-pyramid / bframe-bias=0 / rc-lookahead=25 / lookahead-slices=4 / scenecut=40 / hist-scenecut=0 / radl=0 / no-splice / no-intra-refresh / ctu=64 / min-cu-size=8 / rect / no-amp / max-tu-size=32 / tu-inter-depth=1 / tu-intra-depth=1 / limit-tu=0 / rdoq-level=2 / dynamic-rd=0.00 / no-ssim-rd / signhide / no-tskip / nr-intra=0 / nr-inter=0 / no-constrained-intra / strong-intra-smoothing / max-merge=3 / limit-refs=3 / limit-modes / me=3 / subme=3 / merange=57 / temporal-mvp / no-frame-dup / no-hme / weightp / no-weightb / no-analyze-src-pics / deblock=0:0 / no-sao / no-sao-non-deblock / rd=4 / selective-sao=0 / no-early-skip / rskip / no-fast-intra / no-tskip-fast / no-cu-lossless / no-b-intra / no-splitrd-skip / rdpenalty=0 / psy-rd=2.00 / psy-rdoq=1.00 / no-rd-refine / no-lossless / cbqpoffs=0 / crqpoffs=0 / rc=abr / bitrate=2000 / qcomp=0.60 / qpstep=4 / stats-write=0 / stats-read=2 / cplxblur=20.0 / qblur=0.5 / ipratio=1.40 / pbratio=1.30 / aq-mode=3 / aq-strength=1.00 / cutree / zone-count=0 / no-strict-cbr / qg-size=32 / no-rc-grain / qpmax=69 / qpmin=0 / no-const-vbv / sar=1 / overscan=0 / videoformat=5 / range=0 / colorprim=2 / transfer=2 / colormatrix=2 / chromaloc=0 / display-window=0 / cll=0,0 / min-luma=0 / max-luma=1023 / log2-max-poc-lsb=8 / vui-timing-info / vui-hrd-info / slices=1 / no-opt-qp-pps / no-opt-ref-list-length-pps / no-multi-pass-opt-rps / scenecut-bias=0.05 / hist-threshold=0.01 / no-opt-cu-delta-qp / no-aq-motion / no-hdr10 / no-hdr10-opt / no-dhdr10-opt / no-idr-recovery44. 我失去过感情,也知道爱如覆水,去了难收。所以只有把这种忧伤交付给时间去化解,相信爱情走就是走了,而不强加挽留。-sei / analysis-reuse-level=0 / analysis-save-reuse-level=0 / analysis-load-reuse-level=0 / scale-factor=0 / refine-intra=0 / refine-inter=0 / refine-mv=1 / refine-ctu-distortion=0 / no-limit-sao / ctu-info=0 / no-lowpass-dct / refine-analysis-type=0 / copy-pic=1 / max-ausize-factor=1.0 / no-dynamic-refine / no-single-sei / no-hevc-aq / no-svt / no-field / qp-adaptation-range=1.00 / no-scenecut-aware-qpconformance-window-offsets / right=0 / bottom=0
Encoded date         : UTC 2022-05-13 12:43:22
Tagged date      : UTC 2022-05-13 12:43:22
Codec configuration box      : hvcC

Audio
ID           : 2
Format       : AAC LC
Format/Info      : Advanced Audio Codec Low Complexity
Codec ID         : mp4a-40-2
Duration         : 1 h 50 min
Duration_LastFrame       : -11 ms
Bit rate mode        : Constant
Bit rate         : 224 kb/s
Channel(s)       : 6 channels
Channel layout       : C L R Ls Rs LFE
Sampling rate        : 48.0 kHz
Frame rate       : 46.875 FPS (1024 SPF)
Compression mode     : Lossy
Stream size      : 178 MiB (10%)
Language         : English
Default          : Yes
Alternate group      : 1
Encoded date         : UTC 2022-05-13 12:43:22
Tagged date      : UTC 2022-05-13 12:43:22

    

悠悠MP4_MP4电影下载_球鞋灰姑娘 Sneakerella.2022.1080p.WEBRip.x265-RARBG 1.73 GB
悠悠MP4_MP4电影下载_球鞋灰姑娘 Sneakerella.2022.1080p.WEBRip.x265-RARBG 1.73 GB
悠悠MP4_MP4电影下载_球鞋灰姑娘 Sneakerella.2022.1080p.WEBRip.x265-RARBG 1.73 GB

磁力链接


    
    宴清都 吴文英081李白:长相思二首之二电影下载,MP4下载,高清电影,电影排行榜,电影票房The evidence suggests that, on balance, people today tend to concern themselves with only practical matters that are related to their life.

热门电影下载

最新电影下载

电影票房排行榜