电影下载

毕业季 Senior.Year.2022.1080p.WEBRip.x265-RARBG 1.77 GB

毕业季 Senior.Year.2022.1080p.WEBRip.x265-RARBG 1.77 GB

  • 版本:高清完整版
  • 发布:

电影介绍

    毕业季 Senior.Year.2022.1080p.WEBRip.x265-RARBG 1.77 GB目中无人应有静如处女,动如脱兔尽有17. 遇见靠的是缘分,相守靠的是用心,不是所有的相遇都是一场怦然心动,也不是所有的情缘都能相伴一生。以前的完美,越来越模糊;以前的时光,越来越凌乱。不是不想念,而是太感性怕忧伤了的眼睛;不是不怀念,而是不敢去触碰那回不去的以前。62. The city is located on the banks of the Long River.314.等闲识得东风面,万紫千红总是春。《春日》

    悠悠MP4_MP4电影下载_毕业季 Senior.Year.2022.1080p.WEBRip.x265-RARBG 1.77 GB

◎片  名 毕业季 Senior Year / 重返毕业季
◎年  代 2022
◎产  地 美国
◎类  别 喜剧
◎语  言 英语
◎上映日期 2022-05-13(美国)
◎IMDb评分 
◎IMDb链接  https://www.imdb.com/title/tt5315212/
◎豆瓣评分 /10 from 0 users
◎豆瓣链接 https://movie.douban.com/subject/35456459/
◎片  长 111分钟
◎导  演 亚历克斯·哈德卡瑟尔 Alex Hardcastle
◎编  剧 布兰登·斯科特·琼斯 Brandon Scott Jones
       安德鲁·克劳尔 Andrew Knauer
◎主  演 蕾蓓尔·威尔森 Rebel Wilson
       艾丽西亚·希尔维斯通 Alicia Silverstone
       山姆·理查森 Sam Richardson
       佐伊·晁 Zoë Chao
       安格瑞·赖斯 Angourie Rice
       贾斯汀·哈特雷 Justin Hartley
       布兰登·斯科特·琼斯 Brandon Scott Jones
       克里斯·帕内尔 Chris Parnell
       玛丽·霍兰 Mary Holland
       杰里米·雷·泰勒 Jeremy Ray Taylor
       迈克尔·西米诺 Michael Cimino
       泰勒·巴恩哈特 Tyler Barnhardt
       乔舒亚·科利 Joshua Colley
       约翰·盖蒂尔 John Gettier

◎简  介

  一个拉拉队队长在昏迷20年后醒来,她回到高中,试着恢复自己的地位,并要求拿回舞会皇后的桂冠。
    


    
Video
ID           : 1
Format       : HEVC
Format/Info      : High Efficiency Video Coding
Format profile       : Main 10@L4@Main
Codec ID         : hev1
Codec ID/Info        : High Efficiency Video Coding
Duration         : 1 h 53 min
Bit rate         : 2 002 kb/s
Width        : 1 920 pixels
Height       : 1 080 pixels
Display aspect ratio     : 16:9
Frame rate mode      : Constant
Frame rate       : 24.000 FPS
Color space      : YUV
Chroma subsampling       : 4:2:0
Bit depth        : 10 bits
Bits/(Pixel*Frame)       : 0.040
Stream size      : 1.59 GiB (90%)
Writing library      : x265 3.3+4-rarbg-30eb4de83092:[Linux][GCC 8.3.1][64 bit] 10bit
Encoding settings        : cpuid=1111039 / frame-threads=4 / wpp / no-pmode / no-pme / no-psnr / no-ssim / log-level=2 / input-csp=1 / input-res=1920x1080 / interlace=0 / total-frames=0 / level-idc=0 / high-tier=1 / uhd-bd=0 / ref=4 / no-allow-non-conformance / no-repeat-headers / annexb / no-aud / no-hrd / info / hash=0 / no-temporal-layers / open-gop / min-keyint=24 / keyint=250 / gop-lookahead=0 / bframes=4 / b-adapt=2 / b-pyramid / bframe-bias=0 / rc-lookahead=25 / lookahead-slices=4 / scenecut=40 / hist-scenecut=0 / radl=0 / no-splice / no-intra-refresh / ctu=64 / min-cu-size=8 / rect / no-amp / max-tu-size=32 / tu-inter-depth=1 / tu-intra-depth=1 / limit-tu=0 / rdoq-level=2 / dynamic-rd=0.00 / no-ssim-rd / signhide / no-tskip / nr-intra=0 / nr-inter=0 / no-constrained-intra / strong-intra-smoothing / max-merge=3 / limit-refs=3 / limit-modes / me=3 / subme=3 / merange=57 / temporal-mvp / no-frame-dup / no-hme / weightp / no-weightb / no-analyze-src-pics / deblock=0:0 / no-sao / no-sao-non-deblock / rd=4 / selective-sao=0 / no-early-skip / rskip / no-fast-intra / no-tskip-fast / no-cu-lossless / no-b-intra / no-splitrd-skip / rdpenalty=0 / psy-rd=2.00 / psy-rdoq=1.00 / no-rd-refine / no-lossless / cbqpoffs=0 / crqpoffs=0 / rc=abr / bitrate=2000 / qcomp=0.60 / qpstep=4 / stats-write=0 / stats-read=2 / cplxblur=20.0 / qblur=0.5 / ipratio=1.40 / pbratio=1.30 / aq-mode=3 / aq-strength=1.00 / cutree / zone-count=0 / no-strict-cbr / qg-size=32 / no-rc-grain / qpmax=69 / qpmin=0 / no-const-vbv / sar=1 / overscan=0 / videoformat=5 / range=0 / colorprim=2 / transfer=2 / colormatrix=2 / chromaloc=0 / display-window=0 / cll=0,0 / min-luma=0 / max-luma=1023 / log2-max-poc-lsb=8 / vui-timing-info / vui-hrd-info / slices=1 / no-opt-qp-pps / no-opt-ref-list-length-pps / no-multi-pass-opt-rps / scenecut-bias=0.05 / hist-threshold=0.01 / no-opt-cu-delta-qp / no-aq-motion / no-hdr10 / no-hdr10-opt / no-dhdr10-opt / no-idr-recovery-sei / analysis-reuse-level=0 / analysis-save-reuse-level=0 / analysis-load-reuse-level=0 / scale-factor=0 / refine-intra=0 / refine-inter=0 / refine-mv=1 / refine-ctu-distortion=0 / no-limit-sao / ctu-info=0 / no-lowpass-dct / refine-analysis-type=0 / copy-pic=1 / max-ausize-factor=1.0 / no-dynamic-refine / no-single-sei / no-hevc-aq / no-svt / no-field / qp-adaptation-range=1.00 / no-scenecut-aware-qpconformance-window-offsets / right=0 / bottom=0
Encoded date         : UTC 2022-05-13 13:05:56
Tagged date      : UTC 2022-05-13 13:05:56
Codec configuration box      : hvcC

Audio
ID           : 2
Format       : AAC LC
Format/Info      : Advanced Audio Codec Low Complexity
Codec ID         : mp4a-40-2
Duration         : 1 h 53 min
Duration_LastFrame       : -11 ms
Bit rate mode        : Constant
Bit rate         : 224 kb/s
Channel(s)       : 6 channels
Channel layout      &n毁风败俗拼音:huǐ fēng bài sú释义:败坏良好的风俗。同伤风败俗”。出处:《晋书·刘毅传》毁风败俗,无益于化;古今之失,莫大于此。”示例:无bsp;: C L R Ls Rs LFE
Sampling rate        : 48.0 kHz
Frame rate       : 46.875 FPS (1024 SPF)
Compression mode     : Lossy
Stream size      : 182 MiB (10%)
Language         : English
Default          : Yes
Alternate group      : 1
Encoded date         : UTC 2022-05-13 13:05:56
Tagged date      : UTC 2022-05-13 13:05:56

    

悠悠MP4_MP4电影下载_毕业季 Senior.Year.2022.1080p.WEBRip.x265-RARBG 1.77 GB
悠悠MP4_MP4电影下载_毕业季 Senior.Year.2022.1080p.WEBRip.x265-RARBG 1.77 GB
悠悠MP4_MP4电影下载_毕业季 Senior.Year.2022.1080p.WEBRip.x265-RARBG 1.77 GB

磁力链接


    
    过春社了,度帘幕中间,去年尘冷。差池欲住,试入旧巢相并。还相雕梁藻井,又软语商量不定。飘然快拂花梢。翠尾分开红影。180王维:积雨辋川庄作电影下载,MP4下载,高清电影,电影排行榜,电影票房18、Rome was not built in a day.

热门电影下载

最新电影下载

电影票房排行榜