电影下载

死亡谷 Death.Valley.2021.720p.BluRay.x264-PussyFoot 1.93 GB

死亡谷 Death.Valley.2021.720p.BluRay.x264-PussyFoot 1.93 GB

  • 版本:高清完整版
  • 发布:

电影介绍

    死亡谷 Death.Valley.2021.720p.BluRay.x264-PussyFoot 1.93 GB惊天动金风送栩栩如生爽地28. 没有清醒的头脑,再快的脚步也会走歪;没有谨慎的步伐,再平的道路也会跌倒。11. We would appreciate it if you could reply at your earliest convenience. (2011.上海)124.奇文共欣赏,疑义相与析。《移居》

    悠悠MP4_MP4电影下载_死亡谷 Death.Valley.2021.720p.BluRay.x264-PussyFoot 1.93 GB

◎片  名 死亡谷 Death Valley / Лощина мертвецов
◎年  代 2021
◎产  地 加拿大
◎类  别 动作 / 恐怖
◎语  言 英语
◎上映日期 2021-11-18(俄罗斯)
◎IMDb评分  3.9/10 from 1339 users
◎IMDb链接  https://www.imdb.com/title/tt14623762/
◎豆瓣评分 4.8/10 from 147 users
◎豆瓣链接 https://movie.douban.com/subject/35669597/
◎片  长 
◎导  演 
◎编  剧 
◎主  演 

◎简  介

  雇佣兵们去营救一名被囚禁在冷战遗存的地堡中的生物工程师。 在进入不祥的设施后,他们发现自己要为生命而战,因为他们遭到了一种未知的致命生物的攻击。
    


    
Video
ID           : 1
Format       : AVC
Format/Info      : Advanced Video Codec
Format profile       : High@L4.1
Format settings      : CABAC / 81. 简单安静的生活其实不幸福,所以我只拥抱刹那,绵延持久的感觉根本不快乐,所以我只信仰瞬间。 Ref Frames
Format settings, CABAC       : Yes
Format settings, Reference frames    : 8 frames
Codec ID         : V_MPEG4/ISO/AVC
Duration         : 1 h 33 min
Bit rate         : 2 308 kb/s
Width        : 1 280 pixels
Height       : 536 pixels
Display aspect ratio     : 2.40:1
Frame rate mode      : Constant
Frame rate       : 23.976 (24000/1001) FPS
Color space      : YUV
Chroma subsampling       : 4:2:0
Bit depth        : 8 bits
Scan type        : Progressive
Bits/(Pixel*Frame)       : 0.140
Stream size      : 1.50 GiB (78%)
Writing library      : x264 core 164 r3094 bfc87b7
Encoding settings        : cabac=1 / ref=8 / deblock=1:-3:-3 / analyse=0x3:0x133 / me=umh / subme=9 / psy=1 / psy_rd=1.00:0.00 / mixed_ref=1 / me_range=16 / chroma_me=1 / trellis=2 / 8x8dct=1 / cqm=0 / deadzone=21,11 / fast_pskip=0 / chroma_qp_offset=-2 / threads=17 / lookahead_threads=1 / sliced_threads=0 / nr=0 / decimate=1 / interlaced=0 / bluray_compat=0 / constrained_intra=0 / bframes=3 / b_pyramid=2 / b_adapt=2 / b_bias=0 / direct=3 / weightb=1 / open_gop=0 / weightp=2 / keyint=250 / keyint_min=23 / scenecut=40 / intra_refresh=0 / rc_lookahead=60 / rc=crf / mbtree=1 / crf=17.0 / qcomp=0.60 / qpmin=0 / qpmax=69 / qpstep=4 / ip_ratio=1.40 / aq=1:1.00
Language         : English
Default          : Yes
Forced       : No

Audio
ID           : 2
Format       : AC-3
Format/Info      : Audio Coding 3
Commercial name      : Dolby Digital
Codec ID         : A_AC3
Duration         : 1 h 33 min
Bit rate mode        : Constant
Bit rate         : 640 kb/s
Channel(s)       : 6 channels
Channel layout       : L R C LFE Ls Rs
Sampling rate        : 48.0 kHz
Frame rate       : 31.250 FPS (1536 SPF)
Compression mode     : Lossy
Stream size      : 426 MiB (22%)
Language         : English
Service kind         : Complete Main
Default          : Yes
Forced       : No

Text #1
ID           : 3
Format       : PGS
Muxing mode      : zlib
Codec ID         : S_HDMV/PGS
Codec ID/Info        : Picture based subtitle format used on BDs/HD-DVDs
Duration         : 1 h 29 min
Bit rate         : 10.5 kb/s
Count of elements        : 1786
Stream size      : 6.74 MiB (0%)
Language         : German
Default          : No
Forced       : No

Text #2
ID           : 4
Format       : PGS
Muxing mode      : zlib
Codec ID         : S_HDMV/PGS
Codec ID/Info        : Picture based subtitle format used on BDs/HD-DVDs
Duration         : 1 h 11 min
Bit rate         : 284 b/s
Count of elements        : 46
Stream size      : 149 KiB (0%)
Language         : German
Default          : No
Forced       : No

Menu
00:00:00.000         : en:00:00:00.000
00:03:55.360         : en:00:03:55.360
00:09:51.341         : en:00:09:51.341
00:18:48.836         : en:00:18:48.836
00:26:03.228         : en:00:26:03.228
00:33:19.206         : en:00:33:19.206
00:41:28.152         : en:00:41:28.152
00:46:38.004         : en:00:46:38.004
00:57:03.086         : en:00:57:03.086
01:04:16.686         : en:01:04:16.686
01:12:33.224         : en:01:12:33.224
01:20:28.782         : en:01:20:28.782

    

Screenshots:
悠悠MP4_MP4电影下载_死亡谷 Death.Valley.2021.720p.BluRay.x264-PussyFoot 1.93 GB
Death.Valley.2021.720p.BluRay.x264-PussyFoot

Rel.Date...: 19.05.2022
Reso.......: 1280*536px
Biterate...: 2308 kb/s
Source.....: 25 Mb/s
Audio......: DTS-HD
link.......: https://www.imdb.com/title/tt14623762/

磁力链接


    
    喜迁莺 刘一生凄凉宝剑篇,羁泊欲穷年。电影下载,MP4下载,高清电影,电影排行榜,电影票房It is hoped (suggested / recommended) that great (continuous / persistent / sustained / corporate) efforts should be make to control (check / halt / promote) the growth (increase / rise) of …

热门电影下载

最新电影下载

电影票房排行榜