电影下载

反恐行动:独立日 Attack.on.Finland.2021.FINNISH.ENSUBBED.1080p.WEBRip.x265-VXT 1.86 GB

反恐行动:独立日 Attack.on.Finland.2021.FINNISH.ENSUBBED.1080p.WEBRip.x265-VXT 1.86 GB

  • 版本:高清完整版
  • 发布:

电影介绍

    反恐行动:独立日 Attack.on.Finland.2021.FINNISH.ENSUBBED.1080p.WEBRip.x265-VXT 1.86 GB宁缺毋日影西斜滥小桥流水30. 冬天是一个历经沧桑的老人,沉稳,敦厚。他坐在生活了一辈子的庭院里,享受冬日和煦的暖阳。在他那纹路清晰的眉目间,可以看见早春的青葱,盛夏的热情和晚秋的收获。空气里浮动着梅花的淡雅清香。他伸出骨骼嶙峋的手,召唤一辈子相濡以沫的老伴。两个人你一言我一语,絮絮讲述起从前的故事。那些故事里有山舞银蛇,原驰蜡象,也有冰解河开,燕子归来。这一路,不管多辛苦多艰难,他们都并肩携手,从没有分开过。他们的话语时高时低,时而情辞激动,时而慢条斯理。那些飞逝而去的岁月仿佛又被拉扯了回来,近在咫尺,触手可及。渐渐的,老人们的声音消失了,取而代之的是遐思的眼神和恬淡的微笑。窗外,暮色四合,清冷的风撞着檐下的铃铛,叮叮朗朗,带来万物复苏的消息。在大城市,有更多的学校和医院供人们使用。25.人非圣贤,孰能无过?过而能改,善莫大焉。

    悠悠MP4_MP4电影下载_反恐行动:独立日 Attack.on.Finland.2021.FINNISH.ENSUBBED.1080p.WEBRip.x265-VXT 1.86 GB

◎片  名 反恐行动:独立日 Omerta 6/12 / 反恐行动
◎年  代 2021
◎产  地 芬兰
◎类  别 动作 / 惊悚
◎语  言 芬兰语 / 瑞典语 / 塞尔维亚语 / 英语 / 俄语 / 法语 / 西班牙语
◎上映日期 2021-11-19(芬兰)
◎IMDb评分  5.8/10 from 471 users
◎IMDb链接  https://www.imdb.com/title/tt11636880/
◎豆瓣评分 /10 from 0 users
◎豆瓣链接 https://movie.douban.com/subject/34966042/
◎片  长 
◎导  演 阿库·卢希米斯 Aku Louhimies
       安提·乔金恩 Antti Jokinen
◎编  剧 安提·乔金恩 Antti Jokinen
       贾里·奥拉维·兰塔拉 Jari Olavi Rantala
       Ilkka Remes Ilkka Remes
◎主  演 加斯帕·帕科农 Jasper Pääkkönen
       拉娜·布隆代尔 Nanna Blondell
       斯瓦利尔·古德纳松 Sverrir Gudnason
       凯茜·贝尔顿 Cathy Belton
       佩尔蒂·斯维霍姆 Pertti Sveholm
       尤汉·乌尔夫萨克 Juhan Ulfsak
       Zijad Gracic Zijad Gracic
       德拉戈米尔·米希克 Dragomir Mrsic
       马特·派厄斯 Märt Pius
       普瑞特·派厄斯 Priit Pius
       迈克尔·耶尔 Michael Yare
       罗伯特·恩克尔 Robert Enckell
       梅特尔·波拉 Mirtel Pohla
       劳拉·马尔米瓦拉 Laura Malmivaara
       Wanda Dubiel Wanda Dubiel
       泰斯托·奥克萨宁 Taisto Oksanen
       Juha-Pekka Mikkola Juha-Pekka Mikkola
       埃罗·米罗诺夫 Eero Milonoff
       佩卡·斯特朗 Pekka Strang
       乔纳斯·萨特莫 Joonas Saartamo
       克里斯托弗·古梅鲁斯 Kristofer Gummerus
       阿妮塔 Anita Smirnova
       Nina Jääskeläinen Nina Jääskeläinen
       Ripsa Koskinen-Papunen Ripsa Koskinen-Papunen
       Eemeli Louhimies Eemeli Louhimies
       贾里·奥拉维·兰塔拉 Jari Olavi Rantala
       马蒂·里斯蒂宁 Matti Ristinen

◎简  介

  芬兰12月6日的独立日庆祝活动被总统府的袭击打断。一群贵宾被劫持为人质。安全服务官员麦克斯坦纳被命令作为为人质危机的谈判者,他最终查清恐怖袭击背后的主要目标是一个破坏欧洲安全的计划,同时还要揪出谁是幕后黑手。
    


    
Video
ID           : 1
Format       : HEVC
Format/Info      : High Efficiency Video Coding
Format profile       : Main 10@L4@Main
Codec ID         : hev1
Codec ID/Info        : High Efficiency Video Coding
Duration         : 1 h 59 min
Bit rate         : 2 000 kb/s
Width        : 1 920 pixels
Height       : 804 pixels
Display aspect ratio     : 2.40:1
Frame rate mode      : Constant
Frame rate       : 23.976 (24000/1001) FPS
Color space      : YUV
Chroma subsampling       : 4:2:0
Bit depth        : 10 bits
Bits/(Pixel*Frame)       : 0.054
Stream size      : 1.67 GiB (90%)
Writing library      : x265 3.3+4-rarbg-30eb4de83092:[Linux][GCC 8.3.1][64 bit] 10bit
Encoding settings        : cpuid=1111039 / frame-threads=4 / wpp / no-pmode / no-pme / no-psnr / no-ssim / log-level=2 / input-csp=1 / input-res=1920x804 / interlace=0 / total-frames=0 / level-idc=0 / high-tier=1 / uhd-bd=0 / ref=4 / no-allow-non-conformance / no-repeat-headers / annexb / no-aud / no-hrd / info / hash=0 / no-temporal-layers / open-gop / min-keyint=23 / keyint=250 / gop-lookahead=0 / bframes=4 / b-adapt=2 / b-pyramid / bframe-bias=0 / rc-lookahead=25 / lookahead-slices=4 / scenecut=40 / hist-scenecut=0 / radl=0 / no-splice / no-intra-refresh / ctu=64 / min-cu-size=8 / rect / no-amp / max-tu-size=32 / tu-inter-depth=1 / tu-intra-depth=1 / limit-tu=0 / rdoq-level=2 / dynamic-rd=0.00 / no-ssim-rd / signhide / no-tskip / nr-intra=0 / nr-inter=0 / no-constrained-intra / strong-intra-smoothing / max-merge=3 / limit-refs=3 / limit-modes / me=3 / subme=3 / merange=57 / temporal-mvp / no-frame-dup / no-hme / weightp / no-weightb / no-analyze-src-pics / deblock=0:0 / no-sao / no-sao-non-deblock / rd=4 / selective-sao=0 / no-early-skip / rskip / no-fast-intra / no-tskip-fast / no-cu-lossless / no-b-intra / no-splitrd-skip / rdpenalty=0 / psy-rd=2.00 / psy-rdoq=1.00 / no-rd-refine / no-lossless / cbqpoffs=0 / crqpoffs=0 / rc=abr / bitrate=2000 / qcomp=0.60 / qpstep=4 / stats-write=0 / stats-read=2 / cplxblur=20.0 / qblur=0.5 / ipratio=1.40 / pbratio=1.30 / aq-mode=3 / aq-strength=1.00 / cutree / zone-count=0 / no-strict-cbr / qg-size=32 / no-rc-grain / qpmax=69 / qpmin=0 / no-const-vbv / sar=1 / overscan=0 / videoformat=5 / range=0 / colorprim=2 / transfer=2 / colormatrix=2 / chromaloc=0 / display-window=0 / cll=0,0 / min-luma=0 / max-luma=1023 / log2-max-poc-lsb=8 / vui-timing-info / vui-hrd-info / slices=1 / no-opt-qp-pps / no-opt-ref-list-length-pps / no-multi-pass-opt-rps / scenecut-bias=0.05 / hist-threshold=0.01 / no-opt-cu-delta-qp / no-aq-motion / no-hdr10 / no-hdr10-opt / no-dhdr10-opt / no-idr-recovery-sei / analysis-reuse-level=0 / analysis-save-reuse-level=0 / analy存亡未卜拼音:cún wáng wèi bǔ释义:卜猜测,估计。或是活着,或是死了,不能预测。出处:明·冯梦龙《喻世明言》卷十七况宗族远离,夫家存亡未卜,随缘快活,亦足了一生矣。”示例:无sis-load-reuse-level=0 / scale-factor=0 / refine-intra=0 / refine-inter=0 / refine-mv=1 / refine-ctu-distortion=0 / no-limit-sao / ctu-info=0 / no-lowpass-dct / refine-analysis-type=0 / copy-pic=1 / max-ausize-factor=1.0 / no-dynamic-refine / no-single-sei / no-hevc-aq / no-svt / no-field / qp-adaptation-range=1.00 / no-scenecut-aware-qpconformance-window-offsets / right=0 / bottom=0
Encoded date         : UTC 2022-06-08 21:23:09
Tagged date      : UTC 2022-06-08 21:23:09
Codec configuration box      : hvcC

Audio
ID           : 2
Format       : AAC LC
Format/Info      : Advanced Audio Codec Low Complexity
Codec ID         : mp4a-40-2
Duration         : 1 h 59 min
Duration_LastFrame       : -11 ms
Bit rate mode        : Constant
Bit rate         : 224 kb/s
Channel(s)       : 6 channels
Channel layout       : C L R Ls Rs LFE
Sampling rate        : 48.0 kHz
Frame rate       : 46.875 FPS (1024 SPF)
Compression mode     : Lossy
Stream size      : 192 MiB (10%)
Language         : Finnish
Default          : Yes
Alternate group      : 1
Encoded date         : UTC 2022-06-08 21:23:09
Tagged date      : UTC 2022-06-08 21:23:09

    

悠悠MP4_MP4电影下载_反恐行动:独立日 Attack.on.Finland.2021.FINNISH.ENSUBBED.1080p.WEBRip.x265-VXT 1.86 GB
悠悠MP4_MP4电影下载_反恐行动:独立日 Attack.on.Finland.2021.FINNISH.ENSUBBED.1080p.WEBRip.x265-VXT 1.86 GB
悠悠MP4_MP4电影下载_反恐行动:独立日 Attack.on.Finland.2021.FINNISH.ENSUBBED.1080p.WEBRip.x265-VXT 1.86 GB

磁力链接


    
    已消黯,况凄凉近来离思,应忘却明月,夜深归辇。荏苒一枝春,恨东风人似天远。纵有残花,洒征衣、铅泪都满。但殷鄞折取,自遗一襟幽怨。惆怅南朝事,长江独至今。电影下载,MP4下载,高清电影,电影排行榜,电影票房9、First impressions are half the battle.

热门电影下载

最新电影下载

电影票房排行榜